Погані хлопці. Трилогія / Bad Boys. Trilogy (1995, 2003, 2020) 1080p H.265 Ukr/Eng | Sub Ukr/Eng

Нові коментарі

Нова тема   Відповісти
Автор Повідомлення
Anonymous 







2018-08-23 18:10  
Погані хлопці. Трилогія / Bad Boys. Trilogy (1995, 2003, 2020) 1080p H.265 Ukr/Eng | Sub Ukr/Eng

Погані хлопці. Трилогія / Bad Boys. Trilogy (1995, 2003, 2020) 1080p H.265 Ukr/Eng | Sub Ukr/Eng

1. 2. 3.

1. Погані хлопці / Bad Boys (1995) (4K Remastered) 1080p H.265 3xUkr/Eng | Sub Ukr/Eng
Погані хлопці / Bad Boys (1995) (4K Remastered) 1080p H.265 3xUkr/Eng | Sub Ukr/Eng

Погані хлопці. Трилогія / Bad Boys. Trilogy (1995, 2003, 2020) 1080p H.265 Ukr/Eng | Sub Ukr/Eng


Жанр: бойовик, трилер, комедія, кримінальний
Країна: США
Кінокомпанія: Columbia Pictures Corporation
Режисер: Майкл Бей
Актори: Мартін Лоуренс, Вілл Сміт, Тіа Леоні, Чекі Каріо, Тереза Рендл, Мардж Хелгенбергер, Нестор Серрано, Хуліо Оскар Мечосо, Саверіо Гуерра, Анна Томсон, Кевін Корріген, Майкл Імперіолі, Джо Пантоліано

Сюжет:
Вони - повна протилежність один одного. Один з них - зразковий сім'янин і не має багато грошей, інший багатий і користується всіма благами холостяцького життя. Крім дружби їх об'єднує робота в поліції.

Їх нове завдання - зловити жорстокого злочинця, що вкрав наркотики з секретного складу, а також врятувати дівчину, яка випадково опинилася на його шляху. Але для цього друзям доведеться помінятися місцями...

Тривалість: 01:58:50
Якість: [4K Remastered]

Відео:
кодек: H.265 (HEVC)
розмір кадру: 1920 x 1036
бітрейт: 8 145 кб/с
бітова глибина: 10 біт

Увага! Перед завантаженням переконайтесь, що ваш пристрій відтворення (та/або ПЗ) підтримує H.265 (HEVC)

Аудіо # 1:
мова: українська
переклад: багатоголосий закадровий
кодек: AC-3 5.1
бітрейт: 384 кб/с

Аудіо # 2:
мова: українська
переклад: багатоголосий закадровий
кодек: AC-3 5.1
бітрейт: 384 кб/с

Аудіо # 3:
мова: українська
переклад: багатоголосий закадровий
кодек: AC-3 2.0
бітрейт: 192 кб/с

Аудіо # 4:
мова: англійська
переклад: оригінал
кодек: 5.1
бітрейт: 1510 кб/с

Субтитри # 1: (Full from Netflix)
мова: українська
тип: програмні (м'які)
формат: *.srt

Субтитри # 2-3: (Full, SDH)
мова: англійська
тип: програмні (м'які)
формат: *.srt


Info
Код:
General
Unique ID                                : 139845626111077610921980539226509625116 (0x693549B3486EDC10C86ED3717175471C)
Complete name                            : 1. Bad Boys (1995) [4K Remastered] 1080p H.265 [3xUKR_ENG] [Hurtom].
Format                                   :
Format version                           : Version 4
File size                                : 8.81 GiB
Duration                                 : 1 h 58 min
Overall bit rate                         : 10.6 Mb/s
Movie name                               : Погані хлопці / Bad Boys (1995) [4K Remastered]
Encoded date                             : UTC 2020-05-07 19:43:43
Writing application                      : v20.0.0 ('I Am The Sun') 64-bit
Writing library                          : libebml v1.3.5 + v1.4.8
Cover                                    : Yes
Attachments                              : Cover.jpg

Video
ID                                       : 1
Format                                   : HEVC
Format/Info                              : High Efficiency Video Coding
Format profile                           : Main [email protected]@High
Codec ID                                 : V_MPEGH/ISO/HEVC
Duration                                 : 1 h 58 min
Bit rate                                 : 8 145 kb/s
Width                                    : 1 920 pixels
Height                                   : 1 036 pixels
Display aspect ratio                     : 1.85:1
Frame rate mode                          : Constant
Frame rate                               : 23.976 (24000/1001) FPS
Color space                              : YUV
Chroma subsampling                       : 4:2:0
Bit depth                                : 10 bits
Bits/(Pixel*Frame)                       : 0.171
Stream size                              : 6.76 GiB (77%)
Title                                    : Погані хлопці / Bad Boys (1995) [4K Remastered]
Writing library                          : x265 2.7+17-2e370d98c806:[Windows][GCC 8.0.1][64 bit] 10bit
Encoding settings                        : cpuid=1173503 / frame-threads=4 / numa-pools=16 / wpp / no-pmode / no-pme / no-psnr / no-ssim / log-level=2 / input-csp=1 / input-res=1920x1036 / interlace=0 / total-frames=170952 / level-idc=41 / high-tier=1 / uhd-bd=0 / ref=5 / no-allow-non-conformance / no-repeat-headers / annexb / no-aud / no-hrd / info / hash=0 / no-temporal-layers / open-gop / min-keyint=23 / keyint=240 / gop-lookahead=0 / bframes=6 / b-adapt=2 / no-b-pyramid / bframe-bias=0 / rc-lookahead=60 / lookahead-slices=4 / scenecut=40 / radl=0 / no-intra-refresh / ctu=32 / min-cu-size=8 / rect / amp / max-tu-size=32 / tu-inter-depth=3 / tu-intra-depth=3 / limit-tu=1 / rdoq-level=2 / dynamic-rd=0.00 / no-ssim-rd / signhide / no-tskip / nr-intra=0 / nr-inter=0 / no-constrained-intra / no-strong-intra-smoothing / max-merge=3 / limit-refs=2 / limit-modes / me=3 / subme=7 / merange=57 / temporal-mvp / weightp / weightb / no-analyze-src-pics / deblock=-3:-3 / no-sao / no-sao-non-deblock / rd=6 / no-early-skip / rskip / no-fast-intra / no-tskip-fast / no-cu-lossless / b-intra / no-splitrd-skip / rdpenalty=0 / psy-rd=2.00 / psy-rdoq=1.00 / no-rd-refine / no-lossless / cbqpoffs=-2 / crqpoffs=-2 / rc=crf / crf=19.0 / qcomp=0.60 / qpstep=4 / stats-write=0 / stats-read=0 / vbv-maxrate=50000 / vbv-bufsize=50000 / vbv-init=0.9 / crf-max=0.0 / crf-min=0.0 / ipratio=1.40 / pbratio=1.30 / aq-mode=1 / aq-strength=0.80 / cutree / zone-count=1 / zones: / start-frame=165469 / end-frame=170952 / qp=35 / no-strict-cbr / qg-size=32 / no-rc-grain / qpmax=69 / qpmin=0 / no-const-vbv / sar=1 / overscan=0 / videoformat=5 / range=0 / colorprim=1 / transfer=1 / colormatrix=1 / chromaloc=0 / display-window=0 / max-cll=0,0 / min-luma=0 / max-luma=1023 / log2-max-poc-lsb=8 / vui-timing-info / vui-hrd-info / slices=1 / no-opt-qp-pps / no-opt-ref-list-length-pps / no-multi-pass-opt-rps / scenecut-bias=0.05 / no-opt-cu-delta-qp / no-aq-motion / no-hdr / no-hdr-opt / no-dhdr10-opt / no-idr-recovery-sei / analysis-reuse-level=5 / scale-factor=0 / refine-intra=0 / refine-inter=0 / refine-mv=0 / no-limit-sao / ctu-info=0 / no-lowpass-dct / refine-mv-type=0 / copy-pic=1 / max-ausize-factor=1.0 / no-dynamic-refine
Default                                  : Yes
Forced                                   : No
Color range                              : Limited
Color primaries                          : BT.709
Transfer characteristics                 : BT.709
Matrix coefficients                      : BT.709

Audio #1
ID                                       : 2
Format                                   : AC-3
Format/Info                              : Audio Coding 3
Commercial name                          : Dolby Digital
Codec ID                                 : A_AC3
Duration                                 : 1 h 58 min
Bit rate mode                            : Constant
Bit rate                                 : 384 kb/s
Channel(s)                               : 6 channels
Channel layout                           : L R C LFE Ls Rs
Sampling rate                            : 48.0 kHz
Frame rate                               : 31.250 FPS (1536 SPF)
Compression mode                         : Lossy
Delay relative to video                  : 2 s 0 ms
Stream size                              : 326 MiB (4%)
Title                                    : / 5.1 Ch / 384 kbps / БЗ / Inter
Language                                 : Ukrainian
Service kind                             : Complete Main
Default                                  : Yes
Forced                                   : Yes

Audio #2
ID                                       : 3
Format                                   : AC-3
Format/Info                              : Audio Coding 3
Commercial name                          : Dolby Digital
Codec ID                                 : A_AC3
Duration                                 : 1 h 58 min
Bit rate mode                            : Constant
Bit rate                                 : 384 kb/s
Channel(s)                               : 6 channels
Channel layout                           : L R C LFE Ls Rs
Sampling rate                            : 48.0 kHz
Frame rate                               : 31.250 FPS (1536 SPF)
Compression mode                         : Lossy
Delay relative to video                  : 900 ms
Stream size                              : 326 MiB (4%)
Title                                    : / 5.1 Ch / 384 kbps / БЗ / Kanal Ukraina
Language                                 : Ukrainian
Service kind                             : Complete Main
Default                                  : No
Forced                                   : No

Audio #3
ID                                       : 4
Format                                   : AC-3
Format/Info                              : Audio Coding 3
Commercial name                          : Dolby Digital
Codec ID                                 : A_AC3
Duration                                 : 1 h 58 min
Bit rate mode                            : Constant
Bit rate                                 : 192 kb/s
Channel(s)                               : 2 channels
Channel layout                           : L R
Sampling rate                            : 48.0 kHz
Frame rate                               : 31.250 FPS (1536 SPF)
Compression mode                         : Lossy
Delay relative to video                  : 24 ms
Stream size                              : 163 MiB (2%)
Title                                    : / 2.0 Ch / 192 kbps / БЗ / ICTV
Language                                 : Ukrainian
Service kind                             : Complete Main
Default                                  : No
Forced                                   : No

Audio #4
ID                                       : 5
Format                                   :
Format/Info                              : Digital Theater Systems
Codec ID                                 : A_DTS
Duration                                 : 1 h 58 min
Bit rate mode                            : Constant
Bit rate                                 : 1 509 kb/s
Channel(s)                               : 6 channels
Channel layout                           : C L R Ls Rs LFE
Sampling rate                            : 48.0 kHz
Frame rate                               : 93.750 FPS (512 SPF)
Bit depth                                : 24 bits
Compression mode                         : Lossy
Delay relative to video                  : 3 ms
Stream size                              : 1.25 GiB (14%)
Title                                    : / 5.1 Ch / 1509 kbps / Original
Language                                 : English
Default                                  : No
Forced                                   : No

Text #1
ID                                       : 6
Format                                   : UTF-8
Codec ID                                 : S_TEXT/UTF8
Codec ID/Info                            : UTF-8 Plain Text
Duration                                 : 1 h 54 min
Bit rate                                 : 116 b/s
Count of elements                        : 1781
Stream size                              : 97.7 KiB (0%)
Title                                    : Full from Netflix
Language                                 : Ukrainian
Default                                  : Yes
Forced                                   : No

Text #2
ID                                       : 7
Format                                   : UTF-8
Codec ID                                 : S_TEXT/UTF8
Codec ID/Info                            : UTF-8 Plain Text
Duration                                 : 1 h 54 min
Bit rate                                 : 68 b/s
Count of elements                        : 1659
Stream size                              : 57.4 KiB (0%)
Title                                    : Full
Language                                 : English
Default                                  : No
Forced                                   : No

Text #3
ID                                       : 8
Format                                   : UTF-8
Codec ID                                 : S_TEXT/UTF8
Codec ID/Info                            : UTF-8 Plain Text
Duration                                 : 1 h 55 min
Bit rate                                 : 81 b/s
Count of elements                        : 1806
Stream size                              : 68.8 KiB (0%)
Title                                    : SDH
Language                                 : English
Default                                  : No
Forced                                   : No

Menu
00:00:00.000                             : en:Start
00:05:07.472                             : en:Heroin Robbery
00:12:01.971                             : en:Peeking & Entering
00:17:38.098                             : en:Rich Cop, Poor Cop
00:23:33.203                             : en:Eddie's Surprise Party
00:31:31.764                             : en:Julie's Escape
00:41:09.132                             : en:Two Conversations
00:47:35.310                             : en:At Lois'
00:54:37.357                             : en:Julie Asks for Mike
01:04:05.675                             : en:In Julie's Apartment
01:13:49.800                             : en:Making Their Getaway
01:20:21.483                             : en:Mike's Place
01:27:58.523                             : en:Real Bad Headache
01:34:54.271                             : en:Problems in the Lab
01:43:09.308                             : en:Julie Meets "Marcus"
01:50:51.353                             : en:In the Men's Room
Світлини



2. Погані хлопці 2 / Bad Boys 2 (2003) (4K Remastered) 1080p H.265 2xUkr/Eng | Sub Ukr/Eng
Погані хлопці 2 / Bad Boys 2 (2003) (4K Remastered) 1080p H.265 2xUkr/Eng | Sub Ukr/Eng

Погані хлопці. Трилогія / Bad Boys. Trilogy (1995, 2003, 2020) 1080p H.265 Ukr/Eng | Sub Ukr/Eng


Жанр: бойовик, трилер, комедія, кримінальний
Країна: США
Актори: Мартін Лоуренс, Вілл Сміт, Габріель Юніон, Джо Пантоліано, Хорді Молла, Петер Стормаре, Тереза Рендл

Сюжет:
Детективам з відділу наркотиків Майку Лорі і Маркусу Барнету доручене завдання провести розслідування і затримати постачальників небезпечних наркотиків в Майямі. Це приводить їх до розкриття таємної змови, ключовою персоною в якій є місцевий бос мафії. Але професійні відносини друзів виявляються під загрозою, коли у Майка з'являються певні відчуття до сестри Маркуса - Сід. Навіть якщо вони все ще можуть розділяти персональне з професійним, то над розкриттям справи і тим більше над життям Сід тепер нависає велика небезпека.


Тривалість: 02:26:44
Якість: [4K Remastered]

Відео:
кодек: H.265 (HEVC)
розмір кадру: 1920 x 800
бітрейт: 8 345 кб/с
бітова глибина: 10 біт

Увага! Перед завантаженням переконайтесь, що ваш пристрій відтворення (та/або ПЗ) підтримує H.265 (HEVC)

Аудіо # 1:
мова: українська
переклад: професійний дубльований , ,
кодек: AC-3 2.0
бітрейт: 192 кб/с

Аудіо # 2:
мова: українська
переклад: багатоголосий закадровий
кодек: AC-3 2.0
бітрейт: 192 кб/с

Аудіо # 3:
мова: англійська
переклад: оригінал
кодек: 5.1
бітрейт: 1510 кб/с

Субтитри # 1: (Full from Netflix)
мова: українська
тип: програмні (м'які)
формат: *.srt

Субтитри # 2-3: (Full, SDH)
мова: англійська
тип: програмні (м'які)
формат: *.srt


Info
Код:
General
Unique ID                                : 130139462750607467779942426925820808614 (0x61E7F2E63F2969BE8F604C1D267C0DA6)
Complete name                            : 2. Bad Boys 2 (2003) [4K Remastered] 1080p H.265 [2xUKR_ENG] [Hurtom].
Format                                   :
Format version                           : Version 4
File size                                : 10.5 GiB
Duration                                 : 2 h 26 min
Overall bit rate                         : 10.2 Mb/s
Movie name                               : Погані хлопці 2 / Bad Boys 2 (2003) [4K Remastered]
Encoded date                             : UTC 2020-05-07 20:11:08
Writing application                      : v20.0.0 ('I Am The Sun') 64-bit
Writing library                          : libebml v1.3.5 + v1.4.8
Cover                                    : Yes
Attachments                              : Cover.jpg

Video
ID                                       : 1
Format                                   : HEVC
Format/Info                              : High Efficiency Video Coding
Format profile                           : Main [email protected]@High
Codec ID                                 : V_MPEGH/ISO/HEVC
Duration                                 : 2 h 26 min
Bit rate                                 : 8 344 kb/s
Width                                    : 1 920 pixels
Height                                   : 800 pixels
Display aspect ratio                     : 2.40:1
Frame rate mode                          : Constant
Frame rate                               : 23.976 (24000/1001) FPS
Color space                              : YUV
Chroma subsampling                       : 4:2:0
Bit depth                                : 10 bits
Bits/(Pixel*Frame)                       : 0.227
Stream size                              : 8.55 GiB (81%)
Title                                    : Погані хлопці 2 / Bad Boys 2 (2003) [4K Remastered]
Writing library                          : x265 2.7+351-d3b714bd5471:[Windows][GCC 8.1.0][64 bit] 10bit
Encoding settings                        : cpuid=1111039 / frame-threads=4 / numa-pools=16 / wpp / no-pmode / no-pme / no-psnr / no-ssim / log-level=2 / input-csp=1 / input-res=1920x800 / interlace=0 / total-frames=211094 / level-idc=41 / high-tier=1 / uhd-bd=0 / ref=5 / no-allow-non-conformance / no-repeat-headers / annexb / no-aud / no-hrd / info / hash=0 / no-temporal-layers / open-gop / min-keyint=23 / keyint=240 / gop-lookahead=0 / bframes=8 / b-adapt=2 / b-pyramid / bframe-bias=0 / rc-lookahead=60 / lookahead-slices=4 / scenecut=40 / radl=0 / no-intra-refresh / ctu=64 / min-cu-size=8 / rect / amp / max-tu-size=32 / tu-inter-depth=4 / tu-intra-depth=4 / limit-tu=1 / rdoq-level=2 / dynamic-rd=0.00 / no-ssim-rd / signhide / no-tskip / nr-intra=0 / nr-inter=0 / no-constrained-intra / no-strong-intra-smoothing / max-merge=5 / limit-refs=2 / limit-modes / me=3 / subme=7 / merange=57 / temporal-mvp / weightp / weightb / no-analyze-src-pics / deblock=-3:-3 / no-sao / no-sao-non-deblock / rd=6 / no-early-skip / rskip / no-fast-intra / no-tskip-fast / no-cu-lossless / b-intra / no-splitrd-skip / rdpenalty=0 / psy-rd=2.00 / psy-rdoq=0.10 / no-rd-refine / no-lossless / cbqpoffs=-2 / crqpoffs=-2 / rc=crf / crf=19.0 / qcomp=0.60 / qpstep=4 / stats-write=0 / stats-read=0 / vbv-maxrate=50000 / vbv-bufsize=50000 / vbv-init=0.9 / crf-max=0.0 / crf-min=0.0 / ipratio=1.40 / pbratio=1.30 / aq-mode=2 / aq-strength=1.00 / cutree / zone-count=1 / zones: / start-frame=203721 / end-frame=211094 / qp=35 / no-strict-cbr / qg-size=32 / no-rc-grain / qpmax=69 / qpmin=0 / no-const-vbv / sar=1 / overscan=0 / videoformat=5 / range=0 / colorprim=1 / transfer=1 / colormatrix=1 / chromaloc=0 / display-window=0 / max-cll=0,0 / min-luma=0 / max-luma=1023 / log2-max-poc-lsb=8 / vui-timing-info / vui-hrd-info / slices=1 / no-opt-qp-pps / no-opt-ref-list-length-pps / no-multi-pass-opt-rps / scenecut-bias=0.05 / no-opt-cu-delta-qp / no-aq-motion / no-hdr / no-hdr-opt / no-dhdr10-opt / no-idr-recovery-sei / analysis-reuse-level=5 / scale-factor=0 / refine-intra=0 / refine-inter=0 / refine-mv=0 / no-limit-sao / ctu-info=0 / no-lowpass-dct / refine-mv-type=0 / copy-pic=1 / max-ausize-factor=1.0 / no-dynamic-refine / no-single-sei
Default                                  : Yes
Forced                                   : No
Color range                              : Limited
Color primaries                          : BT.709
Transfer characteristics                 : BT.709
Matrix coefficients                      : BT.709

Audio #1
ID                                       : 2
Format                                   : AC-3
Format/Info                              : Audio Coding 3
Commercial name                          : Dolby Digital
Codec ID                                 : A_AC3
Duration                                 : 2 h 26 min
Bit rate mode                            : Constant
Bit rate                                 : 192 kb/s
Channel(s)                               : 2 channels
Channel layout                           : L R
Sampling rate                            : 48.0 kHz
Frame rate                               : 31.250 FPS (1536 SPF)
Compression mode                         : Lossy
Stream size                              : 201 MiB (2%)
Title                                    : / 2.0 Ch / 192 kbps / ПД / Inter, Novy Kanal, 1+1
Language                                 : Ukrainian
Service kind                             : Complete Main
Default                                  : Yes
Forced                                   : Yes

Audio #2
ID                                       : 3
Format                                   : AC-3
Format/Info                              : Audio Coding 3
Commercial name                          : Dolby Digital
Codec ID                                 : A_AC3
Duration                                 : 2 h 26 min
Bit rate mode                            : Constant
Bit rate                                 : 192 kb/s
Channel(s)                               : 2 channels
Channel layout                           : L R
Sampling rate                            : 48.0 kHz
Frame rate                               : 31.250 FPS (1536 SPF)
Compression mode                         : Lossy
Stream size                              : 201 MiB (2%)
Title                                    : / 2.0 Ch / 192 kbps / БЗ / ICTV
Language                                 : Ukrainian
Service kind                             : Complete Main
Default                                  : No
Forced                                   : No

Audio #3
ID                                       : 4
Format                                   :
Format/Info                              : Digital Theater Systems
Codec ID                                 : A_DTS
Duration                                 : 2 h 26 min
Bit rate mode                            : Constant
Bit rate                                 : 1 509 kb/s
Channel(s)                               : 6 channels
Channel layout                           : C L R Ls Rs LFE
Sampling rate                            : 48.0 kHz
Frame rate                               : 93.750 FPS (512 SPF)
Bit depth                                : 16 bits
Compression mode                         : Lossy
Stream size                              : 1.55 GiB (15%)
Title                                    : / 5.1 Ch / 1509 kbps / Original
Language                                 : English
Default                                  : No
Forced                                   : No

Text #1
ID                                       : 5
Format                                   : UTF-8
Codec ID                                 : S_TEXT/UTF8
Codec ID/Info                            : UTF-8 Plain Text
Duration                                 : 2 h 26 min
Bit rate                                 : 102 b/s
Count of elements                        : 2401
Stream size                              : 110 KiB (0%)
Title                                    : Full from Netflix
Language                                 : Ukrainian
Default                                  : Yes
Forced                                   : No

Text #2
ID                                       : 6
Format                                   : UTF-8
Codec ID                                 : S_TEXT/UTF8
Codec ID/Info                            : UTF-8 Plain Text
Duration                                 : 2 h 20 min
Bit rate                                 : 69 b/s
Count of elements                        : 1916
Stream size                              : 71.0 KiB (0%)
Title                                    : Full
Language                                 : English
Default                                  : No
Forced                                   : No

Text #3
ID                                       : 7
Format                                   : UTF-8
Codec ID                                 : S_TEXT/UTF8
Codec ID/Info                            : UTF-8 Plain Text
Duration                                 : 2 h 25 min
Bit rate                                 : 77 b/s
Count of elements                        : 2258
Stream size                              : 82.5 KiB (0%)
Title                                    : SDH
Language                                 : English
Default                                  : No
Forced                                   : No

Menu
00:00:00.000                             : en:Start
00:11:04.497                             : en:Syd
00:21:54.396                             : en:Undercover Money Launderer
00:39:54.767                             : en:Captain Howard
00:45:27.683                             : en:Blond Dread in the Pink House
00:53:27.787                             : en:Candid Camera
00:59:01.246                             : en:Zook Pest Control
01:06:26.065                             : en:Just Another Day with Mike Lowrey
01:11:28.617                             : en:Floyd Poteet
01:17:53.168                             : en:"We're Seeing Each Other."
01:30:27.130                             : en:Mike Takes the a Train
01:37:38.227                             : en:Reggie Comes-a-Courtin'
01:45:53.764                             : en:ECS-Man
01:56:46.624                             : en:Chapter 14
02:05:07.583                             : en:Sensors Down, Time to Move
02:16:06.700                             : en:Tapia Tapped
Світлини



3. Погані хлопці назавжди / Bad Boys for Life (2020) 1080p H.265 Ukr/Eng | Sub Ukr/Eng
Погані хлопці назавжди / Bad Boys for Life (2020) 1080p H.265 Ukr/Eng | Sub Ukr/Eng

Погані хлопці. Трилогія / Bad Boys. Trilogy (1995, 2003, 2020) 1080p H.265 Ukr/Eng | Sub Ukr/Eng


Жанр: бойовик, комедія, кримінальний, трилер
Країна: США, Мексика
Кінокомпанія: Sony Pictures, Columbia Pictures
Режисер: Аділь Ель Арбі, Білал Фалла
Актори: Вілл Сміт, Мартін Лоуренс, Ванесса Енн Хадженс, Александр Людвіг, Чарльз Мелтон, Паола Нуньєс, Кейт Дел Кастілло, Ніккі Джем, Джо Пантольяно

Сюжет:
Напарники по службі в поліції Маямі Майк Лоурі та Маркус Бернетт разом розкрили чимало справ і зловили не одного поганого хлопця. Але Маркус втомився, він уже хоче на пенсію або хоча би змінити місце роботи, вік уже не той. Чоловік вирішив, що буде приватним детективом, ця посада спокійніша, ніж постійна стрілянина. Майку ж дали нову команду молодих і зухвалих поліцейських, яких ще вчити та вчити... Але нудно йому не буде точно, адже його хоче вбити албанський найманець заради помсти за свого брата. Тільки одне могло змусити напарників об'єднатися знову – небезпека життів один одного. Це їх остання справа, заради якої хлопці повинні забути старі образи.

Тривалість: 02:03:58
Якість:

Відео:
кодек: H.265 (HEVC)
розмір кадру: 1920 x 802
бітрейт: 12 797 кб/с
бітова глибина: 10 біт

Увага! Перед завантаженням переконайтесь, що ваш пристрій відтворення (та/або ПЗ) підтримує H.265 (HEVC)

Аудіо # 1:
мова: українська
переклад: професійний дубльований
кодек: AC-3 5.1
бітрейт: 384 кб/с

Аудіо # 2:
мова: англійська
переклад: оригінал
кодек: 5.1
бітрейт: 1510 кб/с

Субтитри # 1-2: (Forced, Full)
мова: українська
тип: програмні (м'які)
формат: *.srt

Субтитри # 3-5: (Forced, Full, SDH)
мова: англійська
тип: програмні (м'які)
формат: *.srt


Info
Код:
General
Unique ID                                : 226001665806307636415922223080700531286 (0xAA06566AB5F2332D37D59737AC6E5256)
Complete name                            : 3. Bad Boys for Life (2020) 1080p H.265 [UKR_ENG] [Hurtom].
Format                                   :
Format version                           : Version 4
File size                                : 12.7 GiB
Duration                                 : 2 h 3 min
Overall bit rate                         : 14.7 Mb/s
Movie name                               : Погані хлопці назавжди / Bad Boys for Life (2020)
Encoded date                             : UTC 2020-05-05 21:49:05
Writing application                      : v20.0.0 ('I Am The Sun') 64-bit
Writing library                          : libebml v1.3.5 + v1.4.8
Cover                                    : Yes
Attachments                              : Cover.jpg

Video
ID                                       : 1
Format                                   : HEVC
Format/Info                              : High Efficiency Video Coding
Format profile                           : Main [email protected]@High
Codec ID                                 : V_MPEGH/ISO/HEVC
Duration                                 : 2 h 3 min
Bit rate                                 : 12.8 Mb/s
Width                                    : 1 920 pixels
Height                                   : 802 pixels
Display aspect ratio                     : 2.40:1
Frame rate mode                          : Constant
Frame rate                               : 23.976 (24000/1001) FPS
Color space                              : YUV
Chroma subsampling                       : 4:2:0
Bit depth                                : 10 bits
Bits/(Pixel*Frame)                       : 0.347
Stream size                              : 11.1 GiB (87%)
Title                                    : Погані хлопці назавжди / Bad Boys for Life (2020)
Writing library                          : x265 3.3+2-gbe2d82093:[Windows][GCC 10.0.1][64 bit] 10bit
Encoding settings                        : cpuid=1111039 / frame-threads=4 / numa-pools=16 / wpp / no-pmode / no-pme / no-psnr / no-ssim / log-level=2 / input-csp=1 / input-res=1920x802 / interlace=0 / total-frames=178344 / level-idc=41 / high-tier=1 / uhd-bd=0 / ref=5 / no-allow-non-conformance / no-repeat-headers / annexb / no-aud / no-hrd / info / hash=0 / no-temporal-layers / open-gop / min-keyint=23 / keyint=240 / gop-lookahead=0 / bframes=16 / b-adapt=2 / b-pyramid / bframe-bias=0 / rc-lookahead=60 / lookahead-slices=0 / scenecut=40 / hist-scenecut=0 / radl=0 / no-splice / no-intra-refresh / ctu=32 / min-cu-size=8 / rect / amp / max-tu-size=32 / tu-inter-depth=4 / tu-intra-depth=4 / limit-tu=1 / rdoq-level=1 / dynamic-rd=0.00 / no-ssim-rd / signhide / no-tskip / nr-intra=0 / nr-inter=0 / no-constrained-intra / no-strong-intra-smoothing / max-merge=5 / limit-refs=0 / no-limit-modes / me=3 / subme=7 / merange=64 / temporal-mvp / no-frame-dup / hme / Level / merange / L0,L1,L2=16,32,64 / weightp / weightb / no-analyze-src-pics / deblock=-2:-2 / no-sao / no-sao-non-deblock / rd=6 / selective-sao=0 / no-early-skip / rskip / no-fast-intra / no-tskip-fast / no-cu-lossless / b-intra / no-splitrd-skip / rdpenalty=0 / psy-rd=1.50 / psy-rdoq=0.50 / no-rd-refine / no-lossless / cbqpoffs=0 / crqpoffs=0 / rc=crf / crf=19.0 / qcomp=0.70 / qpstep=4 / stats-write=0 / stats-read=0 / vbv-maxrate=50000 / vbv-bufsize=50000 / vbv-init=0.9 / crf-max=0.0 / crf-min=0.0 / ipratio=1.40 / pbratio=1.30 / aq-mode=1 / aq-strength=0.80 / no-cutree / zone-count=1 / zones: / start-frame=169706 / end-frame=178344 / qp=40 / no-strict-cbr / qg-size=32 / no-rc-grain / qpmax=69 / qpmin=0 / no-const-vbv / sar=1 / overscan=0 / videoformat=5 / range=0 / colorprim=1 / transfer=1 / colormatrix=1 / chromaloc=0 / display-window=0 / cll=0,0 / min-luma=0 / max-luma=1023 / log2-max-poc-lsb=8 / vui-timing-info / vui-hrd-info / slices=1 / no-opt-qp-pps / no-opt-ref-list-length-pps / no-multi-pass-opt-rps / scenecut-bias=0.05 / hist-threshold=0.01 / no-opt-cu-delta-qp / no-aq-motion / no-hdr10 / no-hdr10-opt / no-dhdr10-opt / no-idr-recovery-sei / analysis-reuse-level=0 / analysis-save-reuse-level=0 / analysis-load-reuse-level=0 / scale-factor=0 / refine-intra=0 / refine-inter=0 / refine-mv=1 / refine-ctu-distortion=0 / no-limit-sao / ctu-info=0 / no-lowpass-dct / refine-analysis-type=0 / copy-pic=1 / max-ausize-factor=1.0 / no-dynamic-refine / no-single-sei / no-hevc-aq / no-svt / no-field / qp-adaptation-range=1.00 / no-scenecut-aware-qpconformance-window-offsets / right=0 / bottom=0
Default                                  : Yes
Forced                                   : No
Color range                              : Limited
Color primaries                          : BT.709
Transfer characteristics                 : BT.709
Matrix coefficients                      : BT.709

Audio #1
ID                                       : 2
Format                                   : AC-3
Format/Info                              : Audio Coding 3
Commercial name                          : Dolby Digital
Codec ID                                 : A_AC3
Duration                                 : 2 h 3 min
Bit rate mode                            : Constant
Bit rate                                 : 384 kb/s
Channel(s)                               : 6 channels
Channel layout                           : L R C LFE Ls Rs
Sampling rate                            : 48.0 kHz
Frame rate                               : 31.250 FPS (1536 SPF)
Compression mode                         : Lossy
Stream size                              : 340 MiB (3%)
Title                                    : / 5.1 Ch / 384 kbps / ПД / iTunes
Language                                 : Ukrainian
Service kind                             : Complete Main
Default                                  : Yes
Forced                                   : Yes

Audio #2
ID                                       : 3
Format                                   :
Format/Info                              : Digital Theater Systems
Codec ID                                 : A_DTS
Duration                                 : 2 h 3 min
Bit rate mode                            : Constant
Bit rate                                 : 1 509 kb/s
Channel(s)                               : 6 channels
Channel layout                           : C L R Ls Rs LFE
Sampling rate                            : 48.0 kHz
Frame rate                               : 93.750 FPS (512 SPF)
Bit depth                                : 16 bits
Compression mode                         : Lossy
Stream size                              : 1.31 GiB (10%)
Title                                    : / 5.1 Ch / 1509 kbps / Original
Language                                 : English
Default                                  : No
Forced                                   : No

Text #1
ID                                       : 4
Format                                   : UTF-8
Codec ID                                 : S_TEXT/UTF8
Codec ID/Info                            : UTF-8 Plain Text
Duration                                 : 1 h 58 min
Bit rate                                 : 4 b/s
Count of elements                        : 79
Stream size                              : 3.65 KiB (0%)
Title                                    : Forced
Language                                 : Ukrainian
Default                                  : Yes
Forced                                   : Yes

Text #2
ID                                       : 5
Format                                   : UTF-8
Codec ID                                 : S_TEXT/UTF8
Codec ID/Info                            : UTF-8 Plain Text
Duration                                 : 2 h 2 min
Bit rate                                 : 102 b/s
Count of elements                        : 1618
Stream size                              : 92.0 KiB (0%)
Title                                    : Full
Language                                 : Ukrainian
Default                                  : No
Forced                                   : No

Text #3
ID                                       : 6
Format                                   : UTF-8
Codec ID                                 : S_TEXT/UTF8
Codec ID/Info                            : UTF-8 Plain Text
Duration                                 : 1 h 45 min
Bit rate                                 : 2 b/s
Count of elements                        : 77
Stream size                              : 2.22 KiB (0%)
Title                                    : Forced
Language                                 : English
Default                                  : No
Forced                                   : No

Text #4
ID                                       : 7
Format                                   : UTF-8
Codec ID                                 : S_TEXT/UTF8
Codec ID/Info                            : UTF-8 Plain Text
Duration                                 : 1 h 57 min
Bit rate                                 : 59 b/s
Count of elements                        : 1547
Stream size                              : 50.9 KiB (0%)
Title                                    : Full
Language                                 : English
Default                                  : No
Forced                                   : No

Text #5
ID                                       : 8
Format                                   : UTF-8
Codec ID                                 : S_TEXT/UTF8
Codec ID/Info                            : UTF-8 Plain Text
Duration                                 : 2 h 1 min
Bit rate                                 : 80 b/s
Count of elements                        : 2225
Stream size                              : 71.4 KiB (0%)
Title                                    : SDH
Language                                 : English
Default                                  : No
Forced                                   : No

Menu
00:00:00.000                             : :Chapter 1
00:07:32.869                             : :Chapter 2
00:14:56.770                             : :Chapter 3
00:23:43.380                             : :Chapter 4
00:31:05.738                             : :Chapter 5
00:38:43.195                             : :Chapter 6
00:45:26.473                             : :Chapter 7
00:53:27.454                             : :Chapter 8
01:00:22.160                             : :Chapter 9
01:07:29.378                             : :Chapter 10
01:12:55.287                             : :Chapter 11
01:22:11.676                             : :Chapter 12
01:29:49.217                             : :Chapter 13
01:36:47.927                             : :Chapter 14
01:42:08.622                             : :Chapter 15
01:53:55.328                             : :Chapter 16
Світлини




Джерело: &
Особиста оцінка: 10 - без зайвих вагань рекомендую всім!

Подяка пану leicheman за надані укр. субтитри


Срібний реліз (на рейтинг впливає 50% завантаженого)
 Трекер:    Зареєстрований   

Завантажити / скачати фільм українською



відео для новачків



 Зареєстрований:   2020-05-08 18:51
 Розмір:   32.03 GB 
 Оцінка фільму:   9.8/10 (Голосів: 30)
   
Ваш часовий пояс: GMT + 2 Години

Нова тема   Відповісти