Чорний дощ / Black Rain (1989) 720p 2xUkr/Eng | Sub Eng

Нові коментарі

Нова тема   Відповісти
Автор Повідомлення
Anonymous 







2018-08-23 17:43  
Чорний дощ / Black Rain (1989) 720p 2xUkr/Eng | Sub Eng

Чорний дощ / Black Rain (1989) 720p 2xUkr/Eng | Sub Eng


Жанр: бойовик, трилер, кримінальний
Країна: США



Кінокомпанія: Paramount Pictures, Jaffe-Lansing, Pegasus Film Partners
Режисер: Рідлі Скотт / Ridley Scott
Актори: Майкл Даґлес / Michael Douglas, Енді Ґарсія / Andy Garcia, Кен Такакура / Ken Takakura, Кейт Кепшоу / Kate Capshaw, Юсаку Мацуда / Yûsaku Matsuda, Сіґеру Кояма / Shigeru Kôyama, Джон Спенсер / John Spencer, Гуц Ісімацу / Guts Ishimatsu, Юя Утіда / Yûya Uchida, Томісабуро Вакаяма / Tomisaburô Wakayama та інші

Сюжет:
Двом нью-йоркським поліцейським потрапляє в руки безжалісний вбивця, що належить до японської мафії-якудза. Партнерам належить ескортувати злочинця в Осаку, де його чекає суд. Але на японській землі лиходієві вдається сховатися. Герої разом з японським детективом кидаються на його пошуки і виявляються втягнутими в криваву війну гангстерських кланів.


Тривалість: 02:05:18
Якість: 720p
Відео:
кодек:
розмір кадру: 1280х532
бітрейт: 7371 кб/с

Аудіо # 1:
мова: українська
переклад: багатоголосий закадровий
кодек: 2.0
бітрейт: 192 кб/с

Аудіо # 2:
мова: українська
переклад: багатоголосий закадровий
кодек: 2.0
бітрейт: 192 кб/с

Аудіо # 3:
мова: англійська
переклад: оригінал
кодек: -ES 5.1
бітрейт: 1509 кб/с

Субтитри:
мова: англійська
тип: програмні (м'які)
формат: *.srt
Info
General
Unique ID : 231203215396426504814576647146183133817 (0xADF01E9C9A25ACED80FEA01149F50A79)
Format :
Format version : Version 4 / Version 2
File size : 8.11 GiB
Duration : 2 h 5 min
Overall bit rate : 9 267 kb/s
Encoded date : UTC 2018-08-23 14:33:19
Writing application : v6.1.0 ('Old Devil') built on Mar 4 2013 09:10:42
Writing library : libebml v1.3.0 + v1.4.0

Video
ID : 1
Format : AVC
Format/Info : Advanced Video Codec
Format profile : [email protected]
Format settings : CABAC / 8 Ref Frames
Format settings, CABAC : Yes
Format settings, ReFrames : 8 frames
Codec ID : V_MPEG4/ISO/AVC
Duration : 2 h 5 min
Bit rate : 7 371 kb/s
Width : 1 280 pixels
Height : 532 pixels
Display aspect ratio : 2.40:1
Frame rate mode : Constant
Frame rate : 23.976 FPS
Color space : YUV
Chroma subsampling : 4:2:0
Bit depth : 8 bits
Scan type : Progressive
Bits/(Pixel*Frame) : 0.451
Stream size : 6.29 GiB (78%)
Writing library : core 67 r1140M 37424f8
Encoding settings : cabac=1 / ref=8 / deblock=1:-3:-3 / analyse=0x3:0x133 / me=umh / subme=9 / psy_rd=1.0:0.0 / mixed_ref=1 / me_range=32 / chroma_me=1 / trellis=2 / 8x8dct=1 / cqm=0 / deadzone=21,11 / chroma_qp_offset=-2 / threads=6 / nr=0 / decimate=1 / mbaff=0 / bframes=3 / b_pyramid=1 / b_adapt=2 / b_bias=0 / direct=3 / wpredb=1 / keyint=250 / keyint_min=25 / scenecut=40 / rc=2pass / bitrate=7371 / ratetol=1.0 / qcomp=0.60 / qpmin=10 / qpmax=51 / qpstep=4 / cplxblur=20.0 / qblur=0.5 / ip_ratio=1.40 / pb_ratio=1.30 / aq=1:0.90
Language : English
Default : Yes
Forced : No

Audio #1
ID : 2
Format : AC-3
Format/Info : Audio Coding 3
Codec ID : A_AC3
Duration : 2 h 5 min
Bit rate mode : Constant
Bit rate : 192 kb/s
Channel(s) : 2 channels
Channel positions : Front: L R
Sampling rate : 48.0 kHz
Frame rate : 31.250 FPS (1536 SPF)
Bit depth : 16 bits
Compression mode : Lossy
Stream size : 172 MiB (2%)
Title : UKR (NTN)
Language : Ukrainian
Service kind : Complete Main
Default : Yes
Forced : Yes

Audio #2
ID : 3
Format : AC-3
Format/Info : Audio Coding 3
Codec ID : A_AC3
Duration : 2 h 5 min
Bit rate mode : Constant
Bit rate : 192 kb/s
Channel(s) : 2 channels
Channel positions : Front: L R
Sampling rate : 48.0 kHz
Frame rate : 31.250 FPS (1536 SPF)
Bit depth : 16 bits
Compression mode : Lossy
Stream size : 172 MiB (2%)
Title : UKR (ICTV)
Language : Ukrainian
Service kind : Complete Main
Default : No
Forced : No

Audio #3
ID : 4
Format :
Format/Info : Digital Theater Systems
Format profile : ES Discrete / Core
Codec ID : A_DTS
Duration : 2 h 5 min
Bit rate mode : Constant
Bit rate : 1 509 kb/s
Channel(s) : 7 channels / 6 channels
Channel positions : Front: L C R, Side: L R, Back: C, LFE / Front: L C R, Side: L R, LFE
Sampling rate : 48.0 kHz
Frame rate : 93.750 FPS (512 SPF)
Bit depth : 24 bits
Compression mode : Lossy
Stream size : 1.32 GiB (16%)
Language : English
Default : No
Forced : No

Text
ID : 5
Format : UTF-8
Codec ID : S_TEXT/UTF8
Codec ID/Info : UTF-8 Plain Text
Language : English
Default : No
Forced : No

Menu
00:00:00.000 : en:Opening Credits
00:02:45.667 : en:Nice Bike
00:05:06.001 : en:Internal Affairs
00:11:10.668 : en:Table Manners
00:14:43.335 : en:Freeze
00:18:07.002 : en:My Collar, My Case
00:20:47.336 : en:Dental Work
00:23:08.503 : en:Local Heat
00:31:22.371 : en:Observers
00:46:00.205 : en:Money To Burn
00:49:06.039 : en:Ties
00:53:45.506 : en:"What'd I Say"
00:55:27.840 : en:Foreigner
00:57:22.374 : en:The Last Bullfught
01:01:58.374 : en:Just You And Me
01:07:29.507 : en:Sequins
01:12:00.974 : en:Gray Areas
01:15:09.942 : en:The Switch
01:19:28.975 : en:Missing Plate
01:23:25.942 : en:Hot Lead
01:26:38.442 : en:Suspended
01:32:37.776 : en:On The Edge
01:36:29.610 : en:Black Rain
01:40:26.944 : en:Going For It
01:47:04.778 : en:The Yakuza Code
01:51:23.612 : en:Payback
01:57:14.446 : en:Honor
02:01:25.479 : en:End Credits
Скріншоти







Подяка п.РОМЕО за запис звуку до аудіо # 1 та п. omm за його синхронізацію;
п.МАКАРОННІК та п.olgaya за запис звуку та п.JACKUS за зведення аудіо # 2;
п.chapay за українізований постер
Особиста подяка пану denixx за надану матеріальну допомогу на підтримку цього і майбутніх релізів.
Джерело:


Срібний реліз (на рейтинг впливає 50% завантаженого)
 Трекер:    Зареєстрований   

Завантажити / скачати фільм українською



відео для новачків



 Зареєстрований:   2018-08-23 17:43
 Розмір:   8.11 GB 
 Оцінка фільму:   9.9/10 (Голосів: 7)
   
Інші релізи
   Чорний дощ / Black Rain (1989) AVC 2xUkr/Eng | Sub Eng PatataFrita  4 / 0   2.48 GB   2020-04-25 15:02 
   Чорний дощ / Black Rain (1989) 1080p 2xUkr/Eng | Sub Eng PatataFrita  1 / 0   8.89 GB   2020-04-25 14:19 
   Чорний дощ / Black Rain (1989) Remux 1080p 2xUkr/Eng | Sub Eng kryk-v.ya.  2 / 0   25.66 GB   2019-06-11 19:33 
   Чорний дощ / Black Rain (1989) 2xUkr omm  6 / 0   1.62 GB   2014-12-21 21:58 
   Чорний дощ / Black Rain (1989) Ukr | sub Eng JACKUS  4 / 0   2.18 GB   2010-11-13 20:26 
Ваш часовий пояс: GMT + 2 Години

Нова тема   Відповісти