Хороша жінка / A Good Woman (2004) 720p Ukr/Eng | Sub Eng

Нові коментарі

Нова тема   Відповісти
Автор Повідомлення
Anonymous 







2018-08-23 17:07  
Хороша жінка / A Good Woman (2004) 720p Ukr/Eng | Sub Eng

Хороша жінка / A Good Woman (2004) 720p Ukr/Eng | Sub Eng


Жанр: драма, комедія, мелодрама, романтичний
Країна: США, Велика Британія, Італія, Люксембург



Кінокомпанія: Thema Production
Режисер: Майк Баркер
Актори: Гелен Гант, Скарлет Йохансон, Том Вілкінсон, Стівен Кемпбелл Мур, Марк Амберс, Мілена Вукотіч, Діана Хардкесл, Роджер Гаммонд, Джон Стендінг

Сюжет:
З появою однієї леді мереживна ідилія американських молодят у сонячному італійському Амальфі дає тріщину. Інтриги, плітки, сукні, британський гумор і красиві блондинки...


Тривалість: 01:33:18
Якість: 720p
Відео:
кодек:
розмір кадру: 1280х720
бітрейт: 4836 кб/с

Аудіо # 1:
мова: українська
переклад: двоголосий закадровий ,
кодек: 2.0
бітрейт: 192 кб/с

Аудіо # 2:
мова: англійська
переклад: оригінал
кодек: 5.1
бітрейт: 640 кб/с

Субтитри:
мова: англійська
тип: програмні (м'які)
формат: *.srt
Info
General
Unique ID : 251772967367063612238344756449718176977 (0xBD69B5AF2865204B8B8C8EB2E3F20CD1)
Format :
Format version : Version 4 / Version 2
File size : 3.69 GiB
Duration : 1 h 33 min
Overall bit rate : 5 669 kb/s
Encoded date : UTC 2018-08-23 14:03:27
Writing application : v6.1.0 ('Old Devil') built on Mar 4 2013 09:10:42
Writing library : libebml v1.3.0 + v1.4.0

Video
ID : 1
Format : AVC
Format/Info : Advanced Video Codec
Format profile : [email protected]
Format settings : CABAC / 9 Ref Frames
Format settings, CABAC : Yes
Format settings, ReFrames : 9 frames
Codec ID : V_MPEG4/ISO/AVC
Duration : 1 h 33 min
Bit rate : 4 836 kb/s
Width : 1 280 pixels
Height : 720 pixels
Display aspect ratio : 16:9
Frame rate mode : Constant
Frame rate : 23.976 (24000/1001) FPS
Color space : YUV
Chroma subsampling : 4:2:0
Bit depth : 8 bits
Scan type : Progressive
Bits/(Pixel*Frame) : 0.219
Stream size : 3.08 GiB (83%)
Title : A Good Woman (2004)
Writing library : core 148 r2744 b97ae06
Encoding settings : cabac=1 / ref=9 / deblock=1:-3:-3 / analyse=0x3:0x133 / me=umh / subme=11 / psy=1 / psy_rd=1.00:0.00 / mixed_ref=1 / me_range=32 / chroma_me=1 / trellis=2 / 8x8dct=1 / cqm=0 / deadzone=21,11 / fast_pskip=1 / chroma_qp_offset=-2 / threads=6 / lookahead_threads=1 / sliced_threads=0 / nr=0 / decimate=1 / interlaced=0 / bluray_compat=0 / constrained_intra=0 / bframes=16 / b_pyramid=2 / b_adapt=2 / b_bias=2 / direct=3 / weightb=1 / open_gop=0 / weightp=2 / keyint=240 / keyint_min=23 / scenecut=40 / intra_refresh=0 / rc_lookahead=60 / rc=2pass / mbtree=1 / bitrate=4836 / ratetol=1.0 / qcomp=0.60 / qpmin=0 / qpmax=69 / qpstep=4 / cplxblur=20.0 / qblur=0.5 / vbv_maxrate=50000 / vbv_bufsize=62500 / nal_hrd=none / filler=0 / ip_ratio=1.40 / aq=1:1.00
Language : English
Default : Yes
Forced : No

Audio #1
ID : 2
Format : AC-3
Format/Info : Audio Coding 3
Codec ID : A_AC3
Duration : 1 h 33 min
Bit rate mode : Constant
Bit rate : 192 kb/s
Channel(s) : 2 channels
Channel positions : Front: L R
Sampling rate : 48.0 kHz
Frame rate : 31.250 FPS (1536 SPF)
Bit depth : 16 bits
Compression mode : Lossy
Stream size : 128 MiB (3%)
Title : UKR (Gamma, КРТ)
Language : Ukrainian
Service kind : Complete Main
Default : Yes
Forced : Yes

Audio #2
ID : 3
Format : AC-3
Format/Info : Audio Coding 3
Codec ID : A_AC3
Duration : 1 h 33 min
Bit rate mode : Constant
Bit rate : 640 kb/s
Channel(s) : 6 channels
Channel positions : Front: L C R, Side: L R, LFE
Sampling rate : 48.0 kHz
Frame rate : 31.250 FPS (1536 SPF)
Bit depth : 16 bits
Compression mode : Lossy
Stream size : 427 MiB (11%)
Language : English
Service kind : Complete Main
Default : No
Forced : No

Text
ID : 4
Format : UTF-8
Codec ID : S_TEXT/UTF8
Codec ID/Info : UTF-8 Plain Text
Language : English
Default : No
Forced : No
Скріншоти






За українську доріжку подяка п. bntkm, за постер - Дмитро митро
Особиста подяка пану denixx за надану матеріальну допомогу на підтримку цього і майбутніх релізів.
Джерело:


Срібний реліз (на рейтинг впливає 50% завантаженого)
 Трекер:    Зареєстрований   

Завантажити / скачати фільм українською



відео для новачків



 Зареєстрований:   2018-08-23 17:07
 Розмір:   3.69 GB 
 Оцінка фільму:   10/10 (Голосів: 4)
   
Інші релізи
   Гарна жінка / A Good Woman (2004) OlegCena  3 / 0   1.3 GB   2012-11-16 17:00 
   Хороша жінка / A Good Woman (2004) bntkm  1 / 0   1.38 GB   2012-03-07 19:03 
UA_Hunter 
Новенький


З нами з: 16.12.10
Востаннє: 16.10.18
Повідомлень: 17

2018-09-15 22:35  
Красно дякую за реліз! Тільки дія відбувається в італійському Амальфі, а не у Римі, і вперше стикаюся із виразом "мереживна ідилія" - це про опис.
Фільм чудовий! Звук дещо поганенький, але грець із ним, фільм все одно сподобався.

Ваш часовий пояс: GMT + 2 Години

Нова тема   Відповісти