Геошторм / Geostorm (2017) 1080p (60 fps) Ukr/Eng | Sub Eng

Нові коментарі

Нова тема   Відповісти
Останній раз роздавалося Zhendler (2019-08-27)
Автор Повідомлення
Drool 
VIP


З нами з: 17.04.10
Востаннє: 12.11.19
Повідомлень: 1521

2018-08-23 13:15  
Геошторм / Geostorm (2017) 1080p (60 fps) Ukr/Eng | Sub Eng

Геошторм / Geostorm (2017) 1080p (60 fps) Ukr/Eng | Sub Eng


Жанр: бойовик, трилер, фантастика
Країна: США


Діти до 13 років допускаються на фільм тільки з батьками
Настійне застереження батькам. Деякий матеріал може бути невідповідним для дітей до 13 років. Цей рейтинг показує, що оцінений фільм може бути невідповідним для дітей. Батьки повинні бути особливо обережні, дозволяючи своїм маленьким дітям перегляд. Грубе або тривале насильство відсутнє; сексуальна орієнтація на наготу відсутня; деякі сцени вживання наркотиків можуть бути присутніми; можна почути одиничні вживання грубої сексуальної лексики. Присутня епізодична оголеність (не враховуючи репродуктивні органи). Присутні сексуальні натяки і натяки на гомосексуалізм чи сексуальні збочення.
Кінокомпанія: Warner Bros., Electric Entertainment, RatPac-Dune Entertainment, Skydance Productions, Jerry Bruckheimer Films
Режисер: Дін Девлін
Актори: Джерард Батлер, Джим Стьорджес, Еббі Корніш, Ед Гарріс, Енді Ґарсіа, Роберт Шиен, Зазі Бітц, Таліта Бейтман, Деніел Ву, Річард Шифф та інші

Сюжет:
На головного героя фільму Джейка (Джерард Батлер) покладена непроста місія. Він розробляє супутники, що контролюють клімат на планеті. Техніка дала збій і йому потрібно запобігти шторму небувалих масштабів. Стає відомо, що єдина людина, яка здатна змінити програму дії супутників – це Президент Сполучених Штатів.


Тривалість: 01:49:07
Якість: 1080p
Відео:
кодек:
розмір кадру: 1920x800
бітрейт: 13.0 Мб/с
кадрів на секунду: 59.94 к/с

Аудіо # 1:
мова: українська
переклад: професійний дубльований | студія Postmodern
кодек: 2.0 [стерео]
бітрейт: 192 кб/с

Аудіо # 2:
мова: англійська
переклад: оригінал
кодек: HD-MA 5.1
бітрейт: 3928 кб/с

Субтитри #1 (форсовані):
мова: українська
тип: програмні (м'які)
формат: *.srt

Субтитри #2-3 (повні, SDH):
мова: англійська
тип: програмні (м'які)
формат: *.srt
Info
Код:
General
Unique ID                                : 320389648704829084815783509203324495023 (0xF108CD44CFCDDF491DD0E87B6F43E4AF)
Complete name                            : /mnt/disk/Video/Geostorm.2017.Ukr.Dub-2.0..1080p.60fps.
Format                                   :
Format version                           : Version 4 / Version 2
File size                                : 13.0 GiB
Duration                                 : 1 h 49 min
Overall bit rate                         : 17.1 Mb/s
Movie name                               : Геошторм / Geostorm (2017) 1080p (60 fps) | video by AND77200
Encoded date                             : UTC 2018-08-23 10:34:11
Writing application                      : v8.2.0 ('World of Adventure') 64bit
Writing library                          : libebml v1.3.1 + v1.4.2
Cover                                    : Yes
Attachments                              : cover.png

Video
ID                                       : 1
Format                                   : AVC
Format/Info                              : Advanced Video Codec
Format profile                           : [email protected]
Format settings                          : CABAC / 4 Ref Frames
Format settings, CABAC                   : Yes
Format settings, RefFrames               : 4 frames
Codec ID                                 : V_MPEG4/ISO/AVC
Duration                                 : 1 h 49 min
Bit rate                                 : 13.0 Mb/s
Width                                    : 1 920 pixels
Height                                   : 800 pixels
Display aspect ratio                     : 2.40:1
Frame rate mode                          : Constant
Frame rate                               : 59.940 (59940/1000) FPS
Color space                              : YUV
Chroma subsampling                       : 4:2:0
Bit depth                                : 8 bits
Scan type                                : Progressive
Bits/(Pixel*Frame)                       : 0.141
Stream size                              : 9.86 GiB (76%)
Title                                    : Геошторм / Geostorm (2017) 1080p (60 fps) | video by AND77200
Writing library                          : core 146 r2538 121396c
Encoding settings                        : cabac=1 / ref=4 / deblock=1:0:0 / analyse=0x3:0x113 / me=umh / subme=9 / psy=1 / psy_rd=1.00:0.10 / mixed_ref=1 / me_range=32 / chroma_me=1 / trellis=1 / 8x8dct=1 / cqm=0 / deadzone=21,11 / fast_pskip=0 / chroma_qp_offset=-3 / threads=6 / lookahead_threads=1 / sliced_threads=0 / nr=0 / decimate=1 / interlaced=0 / bluray_compat=0 / constrained_intra=0 / bframes=16 / b_pyramid=2 / b_adapt=2 / b_bias=0 / direct=3 / weightb=1 / open_gop=0 / weightp=2 / keyint=250 / keyint_min=25 / scenecut=40 / intra_refresh=0 / rc_lookahead=40 / rc=2pass / mbtree=1 / bitrate=13000 / ratetol=1.0 / qcomp=0.60 / qpmin=0 / qpmax=69 / qpstep=4 / cplxblur=20.0 / qblur=0.5 / vbv_maxrate=14000 / vbv_bufsize=14000 / nal_hrd=none / filler=0 / ip_ratio=1.40 / aq=1:1.00
Default                                  : Yes
Forced                                   : Yes

Audio #1
ID                                       : 2
Format                                   : AC-3
Format/Info                              : Audio Coding 3
Mode                                     : Dolby Digital
Format settings, Endianness              : Big
Codec ID                                 : A_AC3
Duration                                 : 1 h 49 min
Bit rate mode                            : Constant
Bit rate                                 : 192 kb/s
Channel(s)                               : 2 channels
Channel positions                        : Front: L R
Sampling rate                            : 48.0 kHz
Frame rate                               : 31.250 FPS (1536 SPF)
Bit depth                                : 16 bits
Compression mode                         : Lossy
Stream size                              : 150 MiB (1%)
Title                                    : Dub [Postmodern, iTunes] 2.0 192 Kbps
Language                                 : Ukrainian
Service kind                             : Complete Main
Default                                  : Yes
Forced                                   : Yes

Audio #2
ID                                       : 3
Format                                   :
Format/Info                              : Digital Theater Systems
Format profile                           : MA / Core
Mode                                     : 16
Format settings, Endianness              : Big
Codec ID                                 : A_DTS
Duration                                 : 1 h 49 min
Bit rate mode                            : Variable / Constant
Bit rate                                 : 3 928 kb/s / 1 509 kb/s
Channel(s)                               : 6 channels
Channel positions                        : Front: L C R, Side: L R, LFE
Sampling rate                            : 48.0 kHz
Frame rate                               : 93.750 FPS (512 SPF)
Bit depth                                : 24 bits
Compression mode                         : Lossless / Lossy
Stream size                              : 2.99 GiB (23%)
Title                                    : Original
Language                                 : English
Default                                  : No
Forced                                   : No

Text #1
ID                                       : 4
Format                                   : UTF-8
Codec ID                                 : S_TEXT/UTF8
Codec ID/Info                            : UTF-8 Plain Text
Duration                                 : 1 h 40 min
Bit rate                                 : 5 b/s
Count of elements                        : 71
Stream size                              : 3.70 KiB (0%)
Title                                    : Ukr Forced
Language                                 : Ukrainian
Default                                  : Yes
Forced                                   : Yes

Text #2
ID                                       : 5
Format                                   : UTF-8
Codec ID                                 : S_TEXT/UTF8
Codec ID/Info                            : UTF-8 Plain Text
Duration                                 : 1 h 40 min
Bit rate                                 : 69 b/s
Count of elements                        : 1464
Stream size                              : 51.5 KiB (0%)
Title                                    : Eng Full
Language                                 : English
Default                                  : No
Forced                                   : No

Text #3
ID                                       : 6
Format                                   : UTF-8
Codec ID                                 : S_TEXT/UTF8
Codec ID/Info                            : UTF-8 Plain Text
Duration                                 : 1 h 40 min
Bit rate                                 : 72 b/s
Count of elements                        : 1623
Stream size                              : 53.4 KiB (0%)
Title                                    : Eng SDH
Language                                 : English
Default                                  : No
Forced                                   : No

Menu
00:00:00.000                             : en:Chapter 1
00:08:33.972                             : en:Chapter 2
00:16:52.053                             : en:Chapter 3
00:27:20.556                             : en:Chapter 4
00:39:13.184                             : en:Chapter 5
00:48:47.925                             : en:Chapter 6
01:00:24.746                             : en:Chapter 7
01:11:01.090                             : en:Chapter 8
01:19:14.959                             : en:Chapter 9
01:30:08.570                             : en:Chapter 10
01:40:25.728                             : en:Chapter 11
Скріншоти
Джерело відеоряду:
Субтитри та звукову доріжку взято з релізу AVC.
Особиста оцінка: 6 - третій сорт - не брак


 Трекер:    Зареєстрований   

Завантажити / скачати фільм українською



відео для новачків



 Зареєстрований:   2018-08-23 13:33
 Розмір:   13 GB 
 Оцінка фільму:   6.9/10 (Голосів: 9)
   
Інші релізи
   Геошторм / Geostorm (2017) 1080p [Open Matte] Ukr/Eng | Sub Eng boroznaya  1 / 0   9.17 GB   2018-07-01 07:27 
   Геошторм / Geostorm (2017) Covenant  1 / 0   1.45 GB   2018-01-21 20:04 
   Геошторм / Geostorm (2017) AVC Ukr/Eng | Sub Eng igor911  7 / 0   2.03 GB   2018-01-20 19:34 
   Геошторм / Geostorm (2017) 720p Ukr/Eng | Sub Eng igor911  5 / 0   4.18 GB   2018-01-20 18:26 
   Геошторм / Geostorm (2017) Remux 1080p Ukr/Eng | Sub Eng staf777  3 / 0   25.8 GB   2018-01-20 03:18 
   Геошторм / Geostorm (2017) 1080p Ukr/Eng | Sub Eng Electroz  9 / 0   8.13 GB   2018-01-19 16:52 
11FrYkT 
Модератор відео


З нами з: 20.02.11
Востаннє: 13.11.19
Повідомлень: 6318

2018-08-26 15:09  
Drool написано:

Bit rate mode                            : Variable / Constant
Bit rate                                 : 3 928 kb/s / 1 509 kb/s
Channel(s)                               : 6 channels
Channel positions                        : Front: L C R, Side: L R, LFE
Sampling rate                            : 48.0 kHz
Frame rate                               : 93.750 FPS (512 SPF)
Bit depth                                : 24 bits
Compression mode                         : Lossless / Lossy
Stream size                              : 2.99 GiB (23%)

не варто надалі такі доріжки добавляти в ріпи

Drool 
VIP


З нами з: 17.04.10
Востаннє: 12.11.19
Повідомлень: 1521

2018-08-26 17:43  
11FrYkT написано:
не варто надалі такі доріжки добавляти в ріпи
Через розмір доріжки? Просто я вирішив, що при такому об'ємі реліза гіг більше, гіг менше - вже не критично.
11FrYkT 
Модератор відео


З нами з: 20.02.11
Востаннє: 13.11.19
Повідомлень: 6318

2018-08-26 18:08  
Drool написано:
Через розмір доріжки? Просто я вирішив, що при такому об'ємі реліза гіг більше, гіг менше - вже не критично.

так, тут не гіг а десь добрих 1.7 гіга, а так зараз із 13 ГБ всього релізу 3 важить доріжка

Ваш часовий пояс: GMT + 2 Години

Нова тема   Відповісти