Робота Клітин | Hataraku Saibou | Cells at Work | はたらく細胞 (13 з 13) (2018) 1080p Jap | Sub Ukr

Нові коментарі

Нова тема   Відповісти
Автор Повідомлення
bodja2 
Частий відвідувач


З нами з: 19.05.13
Востаннє: 29.03.20
Повідомлень: 29

2018-08-23 13:36  
Робота Клітин | Hataraku Saibou | Cells at Work | はたらく細胞 (13 з 13) (2018) 1080p Jap | Sub Ukr
Робота Клітин | Hataraku Saibou | Cells at Work | はたらく細胞 (13 з 13) (2018) 1080p Jap | Sub Ukr
Країна: Японія
Рік: 2018
Студія: David Production
Режисер: Сузукі Кенічі
Жанри: Комедія, Шьонен
Тип: ТБ-серіал

6.60 (116 голосів)
MyAnimeList
7.82 (25851 голосів)
Джерело: ,
Переклад: K0wbassa

Опис:
Історія розповідає про життя клітин у людському організмі. Клітини зображенні як люди певних професій. Деякі з них працюють у сфері доставки, дехто захищає організм від шкідливих бактерій та вірусів, а хтось просто прибирає зайве або відновлює пошкодженні частини тіла.

Відео:
Тривалість: 1 серія: ~ 23:40 (цілком серій: 13)
Якість: 1080p

Кодек: AVC
Розмір кадру: 1920 х 1080
Бітрейт: ~ 7 050 Кбіт/с

Аудіо:
мова: японська
Переклад: оригінал
Кодек: 2.0
канали: 2 (стерео)
бітрейт: 128 Кбіт/сек

Субтитри: (авторський переклад)
мова: українська
Тип: вбудовані (м'які)
Формат: .
Список серій:
1. Пневмокок
2. Садно
3. Вірус Грипу
4. Розлад Шлунку
5. Алергія на Кедровий Пилок
6. Еритробласти та Мієлоцити
7. Ракові Клітини
8. Циркуляція Крові
9. Тимоцити
10. Золотистий Стафілокок
11. Тепловий Удар
12. Геморагічний шок (частина 1)
13. Геморагічний шок (частина 2)
Скріншоти


Info
Color space : YUV
Chroma subsampling : 4:2:0
Bit depth : 8 bits
Scan type : Progressive
Bits/(Pixel*Frame) : 0.142
Stream size : 1.17 GiB (98%)
Writing library : core 142
Encoding settings : cabac=1 / ref=4 / deblock=1:1:1 / analyse=0x3:0x113 / me=umh / subme=8 / psy=1 / psy_rd=0.40:0.00 / mixed_ref=1 / me_range=16 / chroma_me=1 / trellis=1 / 8x8dct=1 / cqm=0 / deadzone=21,11 / fast_pskip=1 / chroma_qp_offset=-2 / threads=12 / lookahead_threads=2 / sliced_threads=0 / nr=0 / decimate=1 / interlaced=0 / bluray_compat=0 / constrained_intra=0 / bframes=3 / b_pyramid=2 / b_adapt=2 / b_bias=0 / direct=3 / weightb=1 / open_gop=0 / weightp=2 / keyint=48 / keyint_min=24 / scenecut=40 / intra_refresh=0 / rc_lookahead=48 / rc=crf / mbtree=1 / crf=15.0 / qcomp=0.60 / qpmin=0 / qpmax=69 / qpstep=4 / vbv_maxrate=8000 / vbv_bufsize=12000 / crf_max=0.0 / nal_hrd=none / filler=0 / ip_ratio=1.40 / aq=1:0.60
Default : Yes
Forced : No

Audio
ID : 2
Format :
Format/Info : Advanced Audio Codec
Format profile : LC
Codec ID : A_AAC
Duration : 23 min 40 s
Bit rate : 128 kb/s
Channel(s) : 2 channels
Channel positions : Front: L R
Sampling rate : 44.1 kHz
Frame rate : 43.066 FPS (1024 spf)
Compression mode : Lossy
Delay relative to video : -83 ms
Stream size : 21.7 MiB (2%)
Language : Japanese
Default : Yes
Forced : No

Text
ID : 3
Format :
Codec ID : S_TEXT/
Codec ID/Info : Advanced Sub Station Alpha
Duration : 22 min 8 s
Bit rate : 235 b/s
Count of elements : 491
Compression mode : Lossless
Stream size : 38.2 KiB (0%)
Title :
Language : Ukrainian
Default : Yes
Forced : Yes


Золотий реліз (завантажене не впливає на рейтинг)
 Трекер:    Зареєстрований   

Завантажити / скачати аніме українською



відео для новачків



 Зареєстрований:   2018-10-17 01:06
 Розмір:   15.71 GB 
 Оцінка аніме:   9.7/10 (Голосів: 6)
   
Ліхтарник 
VIP


З нами з: 16.09.14
Востаннє: 03.04.20
Повідомлень: 1541

2018-08-23 13:48  
Рекомендую переробити у 720, бо так більше шансів що завантажать швидко та підтримають роздачу
Nazaрій 
Свій


З нами з: 25.05.11
Востаннє: 03.04.20
Повідомлень: 110

2018-08-24 23:50  
підтримую, а то щось на стільки велике не хочеться качати
SandUA 
Поважний учасник


З нами з: 17.11.10
Востаннє: 03.04.20
Повідомлень: 203

2018-08-25 12:03  
Можна додати у назві теми (як у заголовку) (кількість готових серій) з (загальна кількість серій).
bodja2 
Частий відвідувач


З нами з: 19.05.13
Востаннє: 29.03.20
Повідомлень: 29

2018-09-18 13:06  
ДОДАНО СЕРІЇ З 7 по 10!!!!!!!!!!!!!!!!!!!!!!!!!!!!!!!!!!!!!!!!!!!!!!!!!!!!!!!!!!!!!!!!!!!!!!!!!!!!

EvGaS 
Відео Гуртом - субтитрування
Відео Гуртом - субтитрування


З нами з: 27.02.12
Востаннє: 31.07.19
Повідомлень: 5669

2018-10-04 17:11  
Серіал непоганий, стилем такого собі пізнавального диктора дуже нагадує Галю.
Два але: завеликий розмір серій, такому нинішньому аніме така якість без потреби. Й інше — той нечастий випадок, де потрібен український диктор та додаткові субтитри. Бо самі лише субтитри надто вже швидко пробігають через активність мультсеріалу.

bodja2 
Частий відвідувач


З нами з: 19.05.13
Востаннє: 29.03.20
Повідомлень: 29

2018-10-17 01:13  
Додано з 11 по 13 серії !!!!!!!!!!!!!!!!!!!!!!!!!!!!!!!!!!!!
Ваш часовий пояс: GMT + 2 Години

Нова тема   Відповісти