Фрост проти Ніксона / Frost/Nixon (2008) 720p Ukr/Eng | Sub Ukr/Eng

Нові коментарі

Нова тема   Відповісти
Автор Повідомлення
Anonymous 







2018-08-23 11:34  
Фрост проти Ніксона / Frost/Nixon (2008) 720p Ukr/Eng | Sub Ukr/Eng

Фрост проти Ніксона / Frost/Nixon (2008) 720p Ukr/Eng | Sub Ukr/Eng


Жанр: драма, історичний
Країна: США, Велика Британія, Франція



Кінокомпанія: Universal Pictures, Imagine Entertainment, Working Title Films, Studio Canal, Relativity Media
Режисер: Рон Говард / Ron Howard
Актори: Френк Ланджелла / Frank Langella, Майкл Шин / Michael Sheen, Сем Роквелл / Sam Rockwell, Кевін Бейкон / Kevin Bacon, Меттью Макфейден / Matthew Macfadyen, Олівер Платт / Oliver Platt, Ребекка Холл / Rebecca Hall, Тобі Джонс / Toby Jones, Енді Мілдер / Andy Milder, Кейт Дженнінґс Ґрант / Kate Jennings Grant, Ґабріель Джаррет / Gabriel Jarret, Джим Мескімена / Jim Meskimen, Патріція МакКормак / Patty McCormack, Джеффрі Блейк / Geoffrey Blake, Клінт Говард / Clint Howard

Сюжет:
Режисер славнозвісного «Коду да Вінчі» Рон Говард представляє екранізацію реальних подій з відвічною темою взаємовідносин влади та мас-медіа. Опоненти аж занадто сильні, щоб мати змогу поступитися іншому - Девід Фрост проти Річарда Ніксона.


Тривалість: 02:01:58
Якість: 720p
Відео:
кодек:
розмір кадру: 1280х544
бітрейт: 6136 кб/с

Аудіо # 1:
мова: українська
переклад: багатоголосий закадровий
кодек: 2.0
бітрейт: 192 кб/с

Аудіо # 2:
мова: англійська
переклад: оригінал
кодек: 5.1
бітрейт: 1510 кб/с

Субтитри # 1:
мова: українська
тип: програмні (м'які)
формат: *.srt

Субтитри # 2:
мова: англійська
тип: програмні (м'які)
формат: *.
Info
General
Unique ID : 222099163171704604097918518848317213928 (0xA716BE2E890D7594BA814C00CFD6CCE8)
Format :
Format version : Version 4 / Version 2
File size : 6.67 GiB
Duration : 2 h 1 min
Overall bit rate : 7 841 kb/s
Movie name : Frost Nixon (2008) 720p BluRay DON - HDCLUB
Encoded date : UTC 2018-08-23 09:28:04
Writing application : v6.1.0 ('Old Devil') built on Mar 4 2013 09:10:42
Writing library : libebml v1.3.0 + v1.4.0
Attachments : CronosPro-Bold.ttf / CronosPro-Semibold.ttf / CronosPro-SemiboldIt.ttf

Video
ID : 1
Format : AVC
Format/Info : Advanced Video Codec
Format profile : [email protected]
Format settings : CABAC / 12 Ref Frames
Format settings, CABAC : Yes
Format settings, ReFrames : 12 frames
Codec ID : V_MPEG4/ISO/AVC
Duration : 2 h 1 min
Bit rate : 6 136 kb/s
Width : 1 280 pixels
Height : 544 pixels
Display aspect ratio : 2.35:1
Frame rate mode : Constant
Frame rate : 23.976 (24000/1001) FPS
Color space : YUV
Chroma subsampling : 4:2:0
Bit depth : 8 bits
Scan type : Progressive
Bits/(Pixel*Frame) : 0.368
Stream size : 5.09 GiB (76%)
Writing library : core 67 r1145M d2e1e1c
Encoding settings : cabac=1 / ref=12 / deblock=1:-3:-3 / analyse=0x1:0x111 / me=umh / subme=9 / psy_rd=1.3:0.1 / mixed_ref=1 / me_range=42 / chroma_me=1 / trellis=2 / 8x8dct=0 / cqm=0 / deadzone=21,11 / chroma_qp_offset=-3 / threads=3 / nr=0 / decimate=0 / mbaff=0 / bframes=8 / b_pyramid=1 / b_adapt=2 / b_bias=0 / direct=3 / wpredb=1 / keyint=250 / keyint_min=25 / scenecut=40 / rc=2pass / bitrate=6136 / ratetol=1.0 / qcomp=0.60 / qpmin=10 / qpmax=51 / qpstep=4 / cplxblur=20.0 / qblur=0.5 / ip_ratio=1.40 / pb_ratio=1.30 / aq=1:0.60
Language : English
Default : Yes
Forced : No

Audio #1
ID : 2
Format : AC-3
Format/Info : Audio Coding 3
Codec ID : A_AC3
Duration : 2 h 1 min
Bit rate mode : Constant
Bit rate : 192 kb/s
Channel(s) : 2 channels
Channel positions : Front: L R
Sampling rate : 48.0 kHz
Frame rate : 31.250 FPS (1536 SPF)
Bit depth : 16 bits
Compression mode : Lossy
Stream size : 167 MiB (2%)
Title : UKR (ТРК "Україна")
Language : Ukrainian
Service kind : Complete Main
Default : Yes
Forced : Yes

Audio #2
ID : 3
Format :
Format/Info : Digital Theater Systems
Codec ID : A_DTS
Duration : 2 h 1 min
Bit rate mode : Constant
Bit rate : 1 510 kb/s
Channel(s) : 6 channels
Channel positions : Front: L C R, Side: L R, LFE
Sampling rate : 48.0 kHz
Frame rate : 93.750 FPS (512 SPF)
Bit depth : 24 bits
Compression mode : Lossy
Stream size : 1.29 GiB (19%)
Language : English
Default : No
Forced : No

Text #1
ID : 4
Format : UTF-8
Codec ID : S_TEXT/UTF8
Codec ID/Info : UTF-8 Plain Text
Language : Ukrainian
Default : No
Forced : No

Text #2
ID : 5
Format :
Codec ID : S_TEXT/
Codec ID/Info : Advanced Sub Station Alpha
Compression mode : Lossless
Language : English
Default : No
Forced : No
Скріншоти







За українську доріжку подяка п.: xslim, karvai0
За український постер подяка п. Mr.Davis
Особиста подяка пану denixx за надану матеріальну допомогу на підтримку цього і майбутніх релізів.
Джерело: &


 Трекер:    Зареєстрований   

Завантажити / скачати фільм українською



відео для новачків



 Зареєстрований:   2018-08-23 11:34
 Розмір:   6.67 GB 
 Оцінка фільму:   10/10 (Голосів: 5)
   
Інші релізи
oster_ok 
Відео Гуртом - підтримка та поширення
Відео Гуртом - підтримка та поширення


З нами з: 20.11.11
Востаннє: 09.12.18
Повідомлень: 126

2018-08-24 00:56  
чи є постер більшого розміру?
чому гасло "Правда тільки одна", якщо в оригіналі "400 million people were waiting for the truth." (400 мільйонів людей чекають на правду.) ?

+380954897458 
Свій


З нами з: 02.06.17
Востаннє: 10.12.18
Повідомлень: 98

2018-09-01 20:47  
Рон Говард, а Клінт - Ховард, хоча рідний брат режисера. Цікаво, чим думають горе-перекладачі? :-)) Потужне кіно. Модно пишуть- жирнюче! Ланджелла ні краплі не схожий на Ніксона, але він грає так, що про це геть забуваєш. Монументальна й велична роль.
myru22 
Частий відвідувач


З нами з: 27.11.16
Востаннє: 10.12.18
Повідомлень: 26

2018-09-03 11:41  
а є в перекладі фільм Ніксон (1995) з Ентоні Хопкінс в ролі Ніксона?
+380954897458 
Свій


З нами з: 02.06.17
Востаннє: 10.12.18
Повідомлень: 98

2018-09-03 12:42  
myru22
Тут я його не знайшов. А на російськомовних торрентах є, звісно.

Ваш часовий пояс: GMT + 2 Години

Нова тема   Відповісти