Каратель / The Punisher (2004) Remux 1080p Ukr/Eng | sub Eng

Нові коментарі

Нова тема   Відповісти
Автор Повідомлення
staf777 
Попереджень: 1
Попереджень: 1 


З нами з: 16.11.16
Востаннє: 10.12.18
Повідомлень: 1890

2018-08-23 08:00  
Каратель / The Punisher (2004) Remux 1080p Ukr/Eng | sub Eng

Каратель / The Punisher (2004) Remux 1080p Ukr/Eng | sub Eng


Жанр: бойовик, кримінальний, драма
Країна: США, Німеччина



Кінокомпанія: Lions Gate Films, Marvel Enterprises
Режисер: Джонатан Генслейґ
Актори: Томас Джейн, Джон Траволта, Вілл Паттон, Ребекка Ромейн, Бен Фостер, Джон Пінетт, Саманта Матіс, Маркус Джонс, А. Рассел Ендрюс, Джеймс Карпінелло, Лаура Гаррінґ, Едді Джемісон, Кевін Неш, Марк Коллі, Рой Шнайдер, Том Новікі

Сюжет:
Колишній оперативник загону Дельта, Френк Касл приходить на службу в ФБР як агент під прикриттям. Під час однієї з операцій через Касла помирає Боббі Сейнт — син відомого кримінального боса Говарда Сейнта. Сейнт наказує вбити Касла і його сім'ю. Гангстери Сейнта вирізують всю сім'ю Кастла, але самому Френку дивом вдається вижити. Завдяки місцевому відлюдникові Френк повертається до життя з наміром помститися.


Тривалість: 02:03:30
Якість: Remux 1080p
Відео:
кодек:
розмір кадру: 1920x1080
бітрейт: 27,4 Mб/с

Аудіо # 1:
мова: українська
переклад: багатоголосий закадровий
кодек: 2.0
бітрейт: 192 кб/с

Аудіо # 2:
мова: англійська
переклад: оригінал
кодек: TrueHD 5.1
бітрейт: 1526 кб/с

Аудіо # 3:
мова: англійська
переклад: оригінал
кодек: 5.1
бітрейт: 640 кб/с

Субтитри:
мова: англійська
тип: пререндерні
формат: *.pgs
Info
General
Unique ID : 187382338113447409577372914135445687213 (0x8CF8868DDD9BF8F20424DE2E2BFA4BAD)
Complete name : D:\Фільми в HD\Бойовик\The Punisher (2004) Remux 1080p [UKR_ENG] [Hurtom].
Format :
Format version : Version 4 / Version 2
File size : 25.7 GiB
Duration : 2 h 3 min
Overall bit rate mode : Variable
Overall bit rate : 29.8 Mb/s
Movie name : The Punisher (2004) Remux 1080p [UKR_ENG] [Hurtom]
Encoded date : UTC 2018-08-23 15:32:50
Writing application : v24.0.0 ('Beyond The Pale') 64-bit
Writing library : libebml v1.3.6 + v1.4.9
Cover : Yes
Attachments : cover.jpg

Video
ID : 1
Format : AVC
Format/Info : Advanced Video Codec
Format profile : [email protected]
Format settings : CABAC / 4 Ref Frames
Format settings, CABAC : Yes
Format settings, ReFrames : 4 frames
Codec ID : V_MPEG4/ISO/AVC
Duration : 2 h 3 min
Bit rate mode : Variable
Bit rate : 27.4 Mb/s
Maximum bit rate : 29.0 Mb/s
Width : 1 920 pixels
Height : 1 080 pixels
Display aspect ratio : 16:9
Frame rate mode : Constant
Frame rate : 23.976 (24000/1001) FPS
Color space : YUV
Chroma subsampling : 4:2:0
Bit depth : 8 bits
Scan type : Progressive
Bits/(Pixel*Frame) : 0.551
Stream size : 23.6 GiB (92%)
Default : Yes
Forced : No
Color range : Limited
Color primaries : BT.709
Transfer characteristics : BT.709
Matrix coefficients : BT.709

Audio #1
ID : 2
Format : AC-3
Format/Info : Audio Coding 3
Codec ID : A_AC3
Duration : 2 h 3 min
Bit rate mode : Constant
Bit rate : 192 kb/s
Channel(s) : 2 channels
Channel positions : Front: L R
Sampling rate : 48.0 kHz
Frame rate : 31.250 FPS (1536 SPF)
Bit depth : 16 bits
Compression mode : Lossy
Stream size : 170 MiB (1%)
Title : [UA-MVO-ICTV]
Language : Ukrainian
Service kind : Complete Main
Default : Yes
Forced : Yes

Audio #2
ID : 3
Format : TrueHD
Codec ID : A_TRUEHD
Duration : 2 h 3 min
Bit rate mode : Variable
Bit rate : 1 526 kb/s
Maximum bit rate : 3 366 kb/s
Channel(s) : 6 channels
Channel positions : Front: L C R, Side: L R, LFE
Sampling rate : 48.0 kHz
Frame rate : 1 200.000 FPS (40 SPF)
Compression mode : Lossless
Stream size : 1.32 GiB (5%)
Language : English
Default : No
Forced : No

Audio #3
ID : 4
Format : AC-3
Format/Info : Audio Coding 3
Codec ID : A_AC3
Duration : 2 h 3 min
Bit rate mode : Constant
Bit rate : 640 kb/s
Channel(s) : 6 channels
Channel positions : Front: L C R, Side: L R, LFE
Sampling rate : 48.0 kHz
Frame rate : 31.250 FPS (1536 SPF)
Bit depth : 16 bits
Compression mode : Lossy
Stream size : 565 MiB (2%)
Language : English
Service kind : Complete Main
Default : No
Forced : No

Text
ID : 5
Format : PGS
Muxing mode : zlib
Codec ID : S_HDMV/PGS
Codec ID/Info : Picture based subtitle format used on BDs/HD-DVDs
Duration : 1 h 53 min
Bit rate : 18.6 kb/s
Count of elements : 1758
Stream size : 15.2 MiB (0%)
Language : English
Default : No
Forced : No
Скріншоти




Джерело: &
Особиста оцінка: 8 - мені сподобалося


Золотий реліз (завантажене не впливає на рейтинг)
 Трекер:    Зареєстрований   

Завантажити / скачати фільм українською



відео для новачків



 Зареєстрований:   2018-08-23 18:53
 Розмір:   25.75 GB 
 Оцінка фільму:   10/10 (Голосів: 4)
   
Інші релізи
bot 
робот


З нами з: 30.09.07
Востаннє: 26.05.05
Повідомлень: 20326

2018-08-23 18:53  
Тему перенесено з Анонси релізів до форуму Фільми в HD


staf777

Ваш часовий пояс: GMT + 2 Години

Нова тема   Відповісти