Проклятий Юнайтед / The Damned United (2009) 720p Ukr/Eng | Sub Eng

Нові коментарі

Нова тема   Відповісти
Автор Повідомлення
Anonymous 







2018-08-22 19:30  
Проклятий Юнайтед / The Damned United (2009) 720p Ukr/Eng | Sub Eng

Проклятий Юнайтед / The Damned United (2009) 720p Ukr/Eng | Sub Eng


Жанр: драма, спорт
Країна: Велика Британія



Кінокомпанія: Chesterfield, Derbyshire, England, UK
Режисер: Том Гупер
Актори: Майкл Шин, Кольм Міні, Тімоті Спол, Генрі Гудман, Джим Броудбент, Пітер МакДональд та інші

Сюжет:
Після переходу головного тренера «Лідса» Дона Реві на посаду головного тренера збірної Англії керівництво клубу запрошує на його місце Брайана Клафа, який раніше зміг вивести скромний клуб "Дербі Каунті" в перший дивізіон Футбольної ліги і зробити команду її переможцем в 1972 році.

У 1973 році Клаф дійшов з «Дербі» до півфіналу Кубка європейських чемпіонів, але вже в наступному році через конфлікт з керівництвом клубу разом з помічником Пітером Тейлором покинув його. Брайану надходить пропозиція очолити футбольний клуб «Лідс Юнайтед», що є лідером чемпіонату Англії. Хоча Клаф неодноразово критикував гравців цієї команди за грубу гру і конфліктував з їх колишнім тренером, він приймає цю пропозицію…


Тривалість: 01:37:34
Якість: 720p
Відео:
кодек:
розмір кадру: 1280х694
бітрейт: 9640 кб/с

Аудіо # 1:
мова: українська
переклад: багатоголосий закадровий
кодек: 2.0
бітрейт: 128 кб/с

Аудіо # 2:
мова: англійська
переклад: оригінал
кодек: 5.1
бітрейт: 640 кб/с

Субтитри # 1-2:
мова: англійська (Full, SDH)
тип: програмні (м'які)
формат: *.srt
Info
General
Unique ID : 239542937741747752046699775671393331827 (0xB4364AAB4CD2AD68B26B9AFA98D42A73)
Format :
Format version : Version 4 / Version 2
File size : 7.24 GiB
Duration : 1 h 37 min
Overall bit rate : 10.6 Mb/s
Encoded date : UTC 2018-08-22 16:24:30
Writing application : v6.1.0 ('Old Devil') built on Mar 4 2013 09:10:42
Writing library : libebml v1.3.0 + v1.4.0

Video
ID : 1
Format : AVC
Format/Info : Advanced Video Codec
Format profile : [email protected]
Format settings : CABAC / 9 Ref Frames
Format settings, CABAC : Yes
Format settings, ReFrames : 9 frames
Codec ID : V_MPEG4/ISO/AVC
Duration : 1 h 37 min
Bit rate : 9 640 kb/s
Width : 1 280 pixels
Height : 694 pixels
Display aspect ratio : 1.85:1
Frame rate mode : Constant
Frame rate : 23.976 (24000/1001) FPS
Color space : YUV
Chroma subsampling : 4:2:0
Bit depth : 8 bits
Scan type : Progressive
Bits/(Pixel*Frame) : 0.453
Stream size : 6.57 GiB (91%)
Writing library : core 150 r2833 df79067
Encoding settings : cabac=1 / ref=9 / deblock=1:-3:-3 / analyse=0x3:0x133 / me=umh / subme=11 / psy=1 / psy_rd=1.05:0.15 / mixed_ref=1 / me_range=48 / chroma_me=1 / trellis=2 / 8x8dct=1 / cqm=0 / deadzone=21,11 / fast_pskip=0 / chroma_qp_offset=-3 / threads=12 / lookahead_threads=1 / sliced_threads=0 / nr=0 / decimate=0 / interlaced=0 / bluray_compat=0 / constrained_intra=0 / bframes=9 / b_pyramid=2 / b_adapt=1 / b_bias=0 / direct=3 / weightb=1 / open_gop=0 / weightp=2 / keyint=240 / keyint_min=23 / scenecut=40 / intra_refresh=0 / rc_lookahead=80 / rc=crf / mbtree=0 / crf=16.5 / qcomp=0.60 / qpmin=0 / qpmax=69 / qpstep=4 / vbv_maxrate=62500 / vbv_bufsize=78125 / crf_max=0.0 / nal_hrd=none / filler=0 / ip_ratio=1.30 / pb_ratio=1.20 / aq=1:0.85
Language : English
Default : Yes
Forced : No
Statistics Tags Issue : v7.9.0 ('Birds') 64bit 2017-06-30 07:14:18 / v6.1.0 ('Old Devil') built on Mar 4 2013 09:10:42 2018-08-22 16:24:30
FromStats_BitRate : 9848547
FromStats_Duration : 01:37:34.891000000
FromStats_FrameCount : 140377
FromStats_StreamSize : 7207771335

Audio #1
ID : 2
Format : AC-3
Format/Info : Audio Coding 3
Codec ID : A_AC3
Duration : 1 h 37 min
Bit rate mode : Constant
Bit rate : 128 kb/s
Channel(s) : 2 channels
Channel positions : Front: L R
Sampling rate : 48.0 kHz
Frame rate : 31.250 FPS (1536 SPF)
Bit depth : 16 bits
Compression mode : Lossy
Stream size : 89.3 MiB (1%)
Title : UKR (ICTV)
Language : Ukrainian
Service kind : Complete Main
Default : Yes
Forced : Yes

Audio #2
ID : 3
Format : AC-3
Format/Info : Audio Coding 3
Codec ID : A_AC3
Duration : 1 h 37 min
Bit rate mode : Constant
Bit rate : 640 kb/s
Channel(s) : 6 channels
Channel positions : Front: L C R, Side: L R, LFE
Sampling rate : 48.0 kHz
Frame rate : 31.250 FPS (1536 SPF)
Bit depth : 16 bits
Compression mode : Lossy
Stream size : 447 MiB (6%)
Language : English
Service kind : Complete Main
Default : No
Forced : No
Statistics Tags Issue : v7.9.0 ('Birds') 64bit 2017-06-30 07:14:18 / v6.1.0 ('Old Devil') built on Mar 4 2013 09:10:42 2018-08-22 16:24:30
FromStats_BitRate : 640000
FromStats_Duration : 01:37:33.920000000
FromStats_FrameCount : 182935
FromStats_StreamSize : 468313600

Text #1
ID : 4
Format : UTF-8
Codec ID : S_TEXT/UTF8
Codec ID/Info : UTF-8 Plain Text
Title : full
Language : English
Default : No
Forced : No
Statistics Tags Issue : v7.9.0 ('Birds') 64bit 2017-06-30 07:14:18 / v6.1.0 ('Old Devil') built on Mar 4 2013 09:10:42 2018-08-22 16:24:30
FromStats_BitRate : 73
FromStats_Duration : 01:30:13.949000000
FromStats_FrameCount : 1381
FromStats_StreamSize : 49769

Text #2
ID : 5
Format : UTF-8
Codec ID : S_TEXT/UTF8
Codec ID/Info : UTF-8 Plain Text
Title : SDH
Language : English
Default : No
Forced : No
Statistics Tags Issue : v7.9.0 ('Birds') 64bit 2017-06-30 07:14:18 / v6.1.0 ('Old Devil') built on Mar 4 2013 09:10:42 2018-08-22 16:24:30
FromStats_BitRate : 79
FromStats_Duration : 01:31:12.341000000
FromStats_FrameCount : 1543
FromStats_StreamSize : 54049

Menu
00:00:00.000 : en:00:00:00.000
00:06:50.243 : en:00:06:50.243
00:12:17.278 : en:00:12:17.278
00:20:25.390 : en:00:20:25.390
00:24:18.373 : en:00:24:18.373
00:28:05.058 : en:00:28:05.058
00:35:52.024 : en:00:35:52.024
00:42:27.211 : en:00:42:27.211
00:48:16.435 : en:00:48:16.435
00:56:24.297 : en:00:56:24.297
01:02:46.846 : en:01:02:46.846
01:06:49.088 : en:01:06:49.088
01:14:01.603 : en:01:14:01.603
01:18:39.423 : en:01:18:39.423
01:24:44.370 : en:01:24:44.370
01:30:22.417 : en:01:30:22.417
Скріншоти








Подяки: за запис - BILko та karvai0. За синхронізацію - BILko. За постер - 24.08.1991
Особиста подяка пану denixx за надану матеріальну допомогу на підтримку цього і майбутніх релізів.
Джерело:


 Трекер:    Зареєстрований   

Завантажити / скачати фільм українською



відео для новачків



 Зареєстрований:   2018-08-22 19:30
 Розмір:   7.24 GB 
 Оцінка фільму:   10/10 (Голосів: 2)
   
Інші релізи
   Проклятий Юнайтед / The Damned United (2009) Ukr/Eng BILko  3 / 0   1.54 GB   2012-10-01 01:01 
KiraKenobi 
Частий відвідувач


З нами з: 15.08.12
Востаннє: 19.04.19
Повідомлень: 29

2018-08-22 22:50  
"Сюжет:
Після уходу..."
Виправте слово "уходу", будьте ласкаві.

splinsei 
Свій


З нами з: 19.01.16
Востаннє: 16.04.19
Повідомлень: 52

2019-02-13 14:31  
Як на мене, одна з кращих спортивних драм. А кінцівка є діаметрально протилежною "Людині, яка змінила все" з Пітом.
Ваш часовий пояс: GMT + 2 Години

Нова тема   Відповісти