Зведені брати / Step Brothers (2008) 720p Ukr/Eng | Sub Eng

Нові коментарі

Нова тема   Відповісти
Автор Повідомлення
Anonymous 







2018-08-22 17:52  
Зведені брати / Step Brothers (2008) 720p Ukr/Eng | Sub Eng

Зведені брати / Step Brothers (2008) 720p Ukr/Eng | Sub Eng


Жанр: комедія
Країна: США



Кінокомпанія: Columbia Pictures, Relativity Media, Apatow Productions, Mosaic Media Group, Gary Sanchez Productions
Режисер: Адам МакКей / Adam McKay
Актори: Bілл Феррелл / Will Ferrell, Джон Сі Райлі / John C. Reilly, Мері Стінберджен / Mary Steenburgen, Річард Дженкінс / Richard Jenkins, Адам Скотт / Adam Scott, Катрін Ген / Kathryn Hahn, Андрі Севадж / Andrea Savage, Лурі Постон / Lurie Poston, Елізабет Йозамп / Elizabeth Yozamp, Лоґан Манус / Logan Manus, Травіс Т. Флорі / Travis T. Flory, Лілі Роуз МакКей / Lili Rose McKay, Шіра Півен / Shira Piven, Сет Морріс / Seth Morris, Bейн Федерман / Wayne Federman

Сюжет:
Бреннан Хафф – 39-річний чоловік, який працює час від часу і продовжує жити з матір’ю Ненсі. Дейл Добек (Райллі) – 40-річний чоловік, який взагалі не має роботи і живе разом з батьком Робертом. Коли Роберт та Ненсі одружуються і вирішують жити разом, Бреннан та Дейл стають зведеними братами...


Тривалість: 01:37:48
Якість: 720p
Відео:
кодек:
розмір кадру: 1280х532
бітрейт: 5310 кб/с

Аудіо # 1:
мова: українська
переклад: професійний дубльований
кодек: 5.1
бітрейт: 384 кб/с

Аудіо # 2:
мова: англійська
переклад: оригінал
кодек: 5.1
бітрейт: 640 кб/с

Субтитри:
мова: англійська
тип: програмні (м'які)
формат: *.srt
Info
General
Unique ID : 210741052188386957543850390791207289662 (0x9E8B4013251B7F3684C3D35AB168833E)
Format :
Format version : Version 4 / Version 2
File size : 4.33 GiB
Duration : 1 h 37 min
Overall bit rate : 6 336 kb/s
Encoded date : UTC 2018-08-22 14:45:53
Writing application : v6.1.0 ('Old Devil') built on Mar 4 2013 09:10:42
Writing library : libebml v1.3.0 + v1.4.0

Video
ID : 1
Format : AVC
Format/Info : Advanced Video Codec
Format profile : [email protected]
Format settings : CABAC / 12 Ref Frames
Format settings, CABAC : Yes
Format settings, ReFrames : 12 frames
Codec ID : V_MPEG4/ISO/AVC
Duration : 1 h 37 min
Bit rate : 5 310 kb/s
Width : 1 280 pixels
Height : 532 pixels
Display aspect ratio : 2.40:1
Frame rate mode : Constant
Frame rate : 23.976 FPS
Color space : YUV
Chroma subsampling : 4:2:0
Bit depth : 8 bits
Scan type : Progressive
Bits/(Pixel*Frame) : 0.325
Stream size : 3.54 GiB (82%)
Writing library : core 65 r1072M f586ba5
Encoding settings : cabac=1 / ref=12 / deblock=1:-3:-3 / analyse=0x3:0x113 / me=umh / subme=9 / psy_rd=1.0:0.0 / mixed_ref=1 / me_range=32 / chroma_me=1 / trellis=0 / 8x8dct=1 / cqm=2 / deadzone=6,4 / chroma_qp_offset=-2 / threads=6 / nr=0 / decimate=1 / mbaff=0 / bframes=3 / b_pyramid=1 / b_adapt=2 / b_bias=0 / direct=3 / wpredb=1 / keyint=240 / keyint_min=24 / scenecut=40(pre) / rc=2pass / bitrate=5310 / ratetol=1.0 / qcomp=0.60 / qpmin=10 / qpmax=51 / qpstep=4 / cplxblur=20.0 / qblur=0.5 / ip_ratio=1.40 / pb_ratio=1.30 / aq=1:1.00
Language : English
Default : Yes
Forced : No

Audio #1
ID : 2
Format : AC-3
Format/Info : Audio Coding 3
Codec ID : A_AC3
Duration : 1 h 37 min
Bit rate mode : Constant
Bit rate : 384 kb/s
Channel(s) : 6 channels
Channel positions : Front: L C R, Side: L R, LFE
Sampling rate : 48.0 kHz
Frame rate : 31.250 FPS (1536 SPF)
Bit depth : 16 bits
Compression mode : Lossy
Stream size : 269 MiB (6%)
Title : UKR (DUB)
Language : Ukrainian
Service kind : Complete Main
Default : Yes
Forced : Yes

Audio #2
ID : 3
Format : AC-3
Format/Info : Audio Coding 3
Codec ID : A_AC3
Duration : 1 h 37 min
Bit rate mode : Constant
Bit rate : 640 kb/s
Channel(s) : 6 channels
Channel positions : Front: L C R, Side: L R, LFE
Sampling rate : 48.0 kHz
Frame rate : 31.250 FPS (1536 SPF)
Bit depth : 16 bits
Compression mode : Lossy
Stream size : 448 MiB (10%)
Language : English
Service kind : Complete Main
Default : No
Forced : No

Text
ID : 4
Format : UTF-8
Codec ID : S_TEXT/UTF8
Codec ID/Info : UTF-8 Plain Text
Language : English
Default : No
Forced : No
Скріншоти









За доріжку подяка п. karvai0
Особиста подяка пану denixx за надану матеріальну допомогу на підтримку цього і майбутніх релізів.
Джерело:


 Трекер:    Зареєстрований   

Завантажити / скачати фільм українською



відео для новачків



 Зареєстрований:   2018-08-22 17:52
 Розмір:   4.33 GB 
 Оцінка фільму:   8.9/10 (Голосів: 10)
   
Ваш часовий пояс: GMT + 2 Години

Нова тема   Відповісти