Тиха гавань / Safe Haven (2013) 720p Ukr/Eng | Sub Eng

Нові коментарі

Нова тема   Відповісти
Автор Повідомлення
Anonymous 







2018-08-22 16:33  
Тиха гавань / Safe Haven (2013) 720p Ukr/Eng | Sub Eng

Тиха гавань / Safe Haven (2013) 720p Ukr/Eng | Sub Eng


Жанр: трилер, драма, мелодрама, детектив
Країна: США



Кінокомпанія: Relativity Media, Temple Hill Entertainment, Nicholas Sparks Productions
Режисер: Лассе Халльстрем
Актори: Джош Дюамель, Ірен Зейглер, Джуліанна Хаф, Кобі Смолдерс, Девід Лайонс та інші

Сюжет:
Головна героїня картини «Тиха гавань» - таємнича молода дівчина на ім'я Кеті. В її долі сталося дещо таке, чого не повинно було трапитися. Ця подія змушує її бігти, не озираючись, забувши про все і про всіх. Саме це прагнення і привело головну героїню в невелике містечко Саутпорт (Північна Каліфорнія). Саме тут Кеті вирішує пожити якийсь час, збираючись з думками. З часом це місто, люди в якому привітні, а життя спокійне та розмірене, починає подобатися головній героїні. Хто знає, може, саме тут вона і вирішить почати своє життя з чистого аркуша.


Тривалість: 01:55:38
Якість: 720p
Відео:
кодек:
розмір кадру: 1280х534
бітрейт: 5250 кб/с

Аудіо # 1:
мова: українська
переклад: багатоголосий закадровий
кодек: 2.0
бітрейт: 192 кб/с

Аудіо # 2:
мова: англійська
переклад: оригінал
кодек: 5.1
бітрейт: 1509 кб/с

Субтитри # 1-3 (Full, SHD, SHD-Colored):
мова: англійська
тип: програмні (м'які)
формат: *.srt
Info
General
Unique ID : 229937459323438140377037753478791204151 (0xACFC5804E5D0720584A4B6B2F4268D37)
Complete name : H:\Toloka\2018\Safe Haven (2013) 720p.
Format :
Format version : Version 4 / Version 2
File size : 5.62 GiB
Duration : 1 h 55 min
Overall bit rate : 6 953 kb/s
Encoded date : UTC 2018-08-22 14:26:27
Writing application : v6.1.0 ('Old Devil') built on Mar 4 2013 09:10:42
Writing library : libebml v1.3.0 + v1.4.0

Video
ID : 1
Format : AVC
Format/Info : Advanced Video Codec
Format profile : [email protected]
Format settings : CABAC / 12 Ref Frames
Format settings, CABAC : Yes
Format settings, ReFrames : 12 frames
Codec ID : V_MPEG4/ISO/AVC
Duration : 1 h 55 min
Bit rate : 5 250 kb/s
Width : 1 280 pixels
Height : 534 pixels
Display aspect ratio : 2.40:1
Frame rate mode : Constant
Frame rate : 23.976 FPS
Color space : YUV
Chroma subsampling : 4:2:0
Bit depth : 8 bits
Scan type : Progressive
Bits/(Pixel*Frame) : 0.320
Stream size : 4.13 GiB (74%)
Writing library : core 130 r2273 b3065e6
Encoding settings : cabac=1 / ref=12 / deblock=1:-3:-3 / analyse=0x3:0x113 / me=umh / subme=10 / psy=1 / psy_rd=1.10:0.00 / mixed_ref=1 / me_range=32 / chroma_me=1 / trellis=2 / 8x8dct=1 / cqm=0 / deadzone=21,11 / fast_pskip=0 / chroma_qp_offset=-2 / threads=12 / lookahead_threads=1 / sliced_threads=0 / nr=0 / decimate=0 / interlaced=0 / bluray_compat=0 / constrained_intra=0 / bframes=6 / b_pyramid=2 / b_adapt=2 / b_bias=0 / direct=3 / weightb=1 / open_gop=0 / weightp=2 / keyint=240 / keyint_min=24 / scenecut=40 / intra_refresh=0 / rc_lookahead=120 / rc=2pass / mbtree=1 / bitrate=5250 / ratetol=1.0 / qcomp=0.70 / qpmin=0 / qpmax=69 / qpstep=4 / cplxblur=20.0 / qblur=0.5 / ip_ratio=1.10 / aq=2:0.85
Language : English
Default : Yes
Forced : No

Audio #1
ID : 2
Format : AC-3
Format/Info : Audio Coding 3
Codec ID : A_AC3
Duration : 1 h 55 min
Bit rate mode : Constant
Bit rate : 192 kb/s
Channel(s) : 2 channels
Channel positions : Front: L R
Sampling rate : 48.0 kHz
Frame rate : 31.250 FPS (1536 SPF)
Bit depth : 16 bits
Compression mode : Lossy
Stream size : 159 MiB (3%)
Title : UKR (K1)
Language : Ukrainian
Service kind : Complete Main
Default : Yes
Forced : Yes

Audio #2
ID : 3
Format :
Format/Info : Digital Theater Systems
Codec ID : A_DTS
Duration : 1 h 55 min
Bit rate mode : Constant
Bit rate : 1 509 kb/s
Channel(s) : 6 channels
Channel positions : Front: L C R, Side: L R, LFE
Sampling rate : 48.0 kHz
Frame rate : 93.750 FPS (512 SPF)
Bit depth : 24 bits
Compression mode : Lossy
Delay relative to video : 11 ms
Stream size : 1.22 GiB (22%)
Language : English
Default : No
Forced : No

Text #1
ID : 4
Format : UTF-8
Codec ID : S_TEXT/UTF8
Codec ID/Info : UTF-8 Plain Text
Title : Full
Language : English
Default : No
Forced : No

Text #2
ID : 5
Format : UTF-8
Codec ID : S_TEXT/UTF8
Codec ID/Info : UTF-8 Plain Text
Title : SDH
Language : English
Default : No
Forced : No

Text #3
ID : 6
Format : UTF-8
Codec ID : S_TEXT/UTF8
Codec ID/Info : UTF-8 Plain Text
Title : SDH-COLORED
Language : English
Default : No
Forced : No

Menu
00:00:00.000 : en:00:00:00.000
00:06:46.948 : en:00:06:46.948
00:15:18.918 : en:00:15:18.918
00:21:47.139 : en:00:21:47.139
00:28:33.711 : en:00:28:33.711
00:35:33.881 : en:00:35:33.881
00:44:57.611 : en:00:44:57.611
00:55:11.641 : en:00:55:11.641
01:01:17.965 : en:01:01:17.965
01:08:29.522 : en:01:08:29.522
01:15:27.898 : en:01:15:27.898
01:20:51.429 : en:01:20:51.429
01:26:05.159 : en:01:26:05.159
01:32:22.411 : en:01:32:22.411
01:37:28.008 : en:01:37:28.008
01:45:23.650 : en:01:45:23.650
Скріншоти








За українську доріжку подяка п.: Neytreenor, Electroz
Особиста подяка пану denixx за надану матеріальну допомогу на підтримку цього і майбутніх релізів.
Джерело:


 Трекер:    Зареєстрований   

Завантажити / скачати фільм українською



відео для новачків



 Зареєстрований:   2018-08-22 16:33
 Розмір:   5.62 GB 
 Оцінка фільму:   8.4/10 (Голосів: 5)
   
Інші релізи
   Тиха гавань / Safe Haven (2013) AVC Ukr/Eng | Sub Eng Electroz  13 / 0   1.61 GB   2017-09-25 16:45 
   Тиха гавань / Safe Haven (2013) | МІС patriot2305  0 / 0   1.31 GB   2013-04-14 15:27 
Ваш часовий пояс: GMT + 2 Години

Нова тема   Відповісти