Вісім подруг Оушена / Ocean's Eight (2018) 1080p Ukr/Eng | Sub Eng

Нові коментарі

Нова тема   Відповісти
Автор Повідомлення
staf777 
Попереджень: 1
Попереджень: 1 


З нами з: 16.11.16
Востаннє: 13.12.18
Повідомлень: 1909

2018-08-22 08:01  
Вісім подруг Оушена / Ocean's Eight (2018) 1080p Ukr/Eng | Sub Eng


Альтернативний постер від Lazzarus'а:



Жанр: бойовик, комедія, кримінальний, трилер
Країна: США



Кінокомпанія: Warner Bros., Village Roadshow Pictures, Rahway Road Productions
Режисер: Гері Росс
Актори: Сандра Буллок, Кейт Бланшетт, Енн Гетевей, Гелена Бонем Картер, Ріанна, Сара Полсон, Мінді Кейлінг, Річард Армітедж, Джеймс Корден, Аквафіна

Сюжет:
Крадіжка – це в генах. Так Деббі, сестра всесвітньо відомого бандита Денні Оушена, 5 років 8 місяців і 12 днів планувала найбільшу справу у своєму житті. Їй потрібно всього лише зібрати команду з таких же відчайдухів-професіоналів, щоби вкрасти діамантове кольє ціною в 150 мільйонів доларів. Найбільша проблема цієї задумки полягає в тому, що ця коштовність буде на очах у сотень людей на заході в музеї "Метрополітен" у Нью-Йорку. Щоб все вийшло, план Деббі повинен втілитися в життя ідеально, без найменшої помилки.


Тривалість: 01:50:07
Якість: 1080p
Відео:
кодек:
розмір кадру: 1920x804
бітрейт: 11 Мб/с

Аудіо # 1:
мова: українська
переклад: професійний дубльований
кодек: 2.0
бітрейт: 192 кб/с

Аудіо # 2:
мова: англійська
переклад: оригінал
кодек: 5.1
бітрейт: 640 кб/с

Субтитри # 1:(Forced)
мова: українська
тип: програмні (м'які)
формат: *.srt

Субтитри # 2-3: (Full, SDH)
мова: англійська
тип: програмні (м'які)
формат: *.srt
Info
General
Unique ID : 171194531392142670242950058668747019090 (0x80CADE100BD9197FFFFE8E3D8BBA5352)
Complete name : S:\Фільми в HD\Комедія\Ocean's Eight (2018) 1080p [UKR_ENG] [Hurtom].
Format :
Format version : Version 4 / Version 2
File size : 9.10 GiB
Duration : 1 h 50 min
Overall bit rate : 11.8 Mb/s
Movie name : Ocean's Eight (2018) 1080p [UKR_ENG] [Hurtom]
Encoded date : UTC 2018-09-01 06:14:38
Writing application : v24.0.0 ('Beyond The Pale') 64-bit
Writing library : libebml v1.3.6 + v1.4.9
Cover : Yes
Attachments : cover

Video
ID : 1
Format : AVC
Format/Info : Advanced Video Codec
Format profile : [email protected]
Format settings : CABAC / 4 Ref Frames
Format settings, CABAC : Yes
Format settings, ReFrames : 4 frames
Codec ID : V_MPEG4/ISO/AVC
Duration : 1 h 50 min
Bit rate : 11.0 Mb/s
Width : 1 920 pixels
Height : 804 pixels
Display aspect ratio : 2.40:1
Frame rate mode : Constant
Frame rate : 23.976 (24000/1001) FPS
Color space : YUV
Chroma subsampling : 4:2:0
Bit depth : 8 bits
Scan type : Progressive
Bits/(Pixel*Frame) : 0.297
Stream size : 8.46 GiB (93%)
Writing library : core 155 r2867+74 66b5600 t_mod_Custom_2 [[email protected] X86_64]
Encoding settings : cabac=1 / ref=4 / deblock=1:-3:-3 / analyse=0x3:0x133 / me=umh / subme=11 / psy=1 / fade_compensate=0.00 / psy_rd=0.95:0.10 / mixed_ref=1 / me_range=48 / chroma_me=1 / trellis=2 / 8x8dct=1 / cqm=0 / deadzone=21,11 / fast_pskip=0 / chroma_qp_offset=-4 / threads=12 / lookahead_threads=2 / sliced_threads=0 / nr=0 / decimate=1 / interlaced=0 / bluray_compat=0 / constrained_intra=0 / fgo=0 / bframes=7 / b_pyramid=2 / b_adapt=2 / b_bias=0 / direct=3 / weightb=1 / open_gop=0 / weightp=2 / keyint=250 / keyint_min=23 / scenecut=40 / intra_refresh=0 / rc_lookahead=30 / rc=2pass / mbtree=0 / bitrate=11000 / ratetol=1.0 / qcomp=0.70 / qpmin=0:0:0 / qpmax=69:69:69 / qpstep=4 / cplxblur=20.0 / qblur=0.5 / vbv_maxrate=35000 / vbv_bufsize=35000 / nal_hrd=none / filler=0 / ip_ratio=1.40 / pb_ratio=1.30 / aq=3:1.00 / aq-sensitivity=10.00 / aq-factor=1.00:1.00:1.00 / aq2=0 / aq3=2:[0.50:0.50]:[0.50:0.50]:[0.50:0.50]:[0.50:0.50] / aq3-sensitivity=10.00 / aq3-factor=[1.00:1.00]:[1.00:1.00]:[1.00:1.00] / aq3-boundary=192:64:24
Language : English
Default : Yes
Forced : No

Audio #1
ID : 2
Format : AC-3
Format/Info : Audio Coding 3
Codec ID : A_AC3
Duration : 1 h 50 min
Bit rate mode : Constant
Bit rate : 192 kb/s
Channel(s) : 2 channels
Channel positions : Front: L R
Sampling rate : 48.0 kHz
Frame rate : 31.250 FPS (1536 SPF)
Bit depth : 16 bits
Compression mode : Lossy
Stream size : 151 MiB (2%)
Title : 2.0 @ 192 kbps
Language : Ukrainian
Service kind : Complete Main
Default : Yes
Forced : Yes

Audio #2
ID : 3
Format : AC-3
Format/Info : Audio Coding 3
Codec ID : A_AC3
Duration : 1 h 50 min
Bit rate mode : Constant
Bit rate : 640 kb/s
Channel(s) : 6 channels
Channel positions : Front: L C R, Side: L R, LFE
Sampling rate : 48.0 kHz
Frame rate : 31.250 FPS (1536 SPF)
Bit depth : 16 bits
Compression mode : Lossy
Stream size : 504 MiB (5%)
Title : Original
Language : English
Service kind : Complete Main
Default : No
Forced : No

Text #1
ID : 4
Format : UTF-8
Codec ID : S_TEXT/UTF8
Codec ID/Info : UTF-8 Plain Text
Duration : 1 h 47 min
Bit rate : 7 b/s
Count of elements : 114
Stream size : 5.64 KiB (0%)
Title : Forced
Language : Ukrainian
Default : Yes
Forced : Yes

Text #2
ID : 5
Format : UTF-8
Codec ID : S_TEXT/UTF8
Codec ID/Info : UTF-8 Plain Text
Duration : 1 h 43 min
Bit rate : 66 b/s
Count of elements : 1778
Stream size : 50.7 KiB (0%)
Title : Full
Language : English
Default : No
Forced : No

Text #3
ID : 6
Format : UTF-8
Codec ID : S_TEXT/UTF8
Codec ID/Info : UTF-8 Plain Text
Duration : 1 h 49 min
Bit rate : 69 b/s
Count of elements : 1762
Stream size : 55.7 KiB (0%)
Title : SDH
Language : English
Default : No
Forced : No

Menu
00:00:00.000 : en:00:00:00.000
00:11:18.261 : en:00:11:18.261
00:20:06.747 : en:00:20:06.747
00:31:37.104 : en:00:31:37.104
00:41:29.612 : en:00:41:29.612
00:49:18.914 : en:00:49:18.914
00:56:22.296 : en:00:56:22.296
01:05:50.071 : en:01:05:50.071
01:16:32.546 : en:01:16:32.546
01:27:01.174 : en:01:27:01.174
01:35:42.153 : en:01:35:42.153
01:44:08.659 : en:01:44:08.659
Скріншоти



Джерело: &
Особиста оцінка: 0 - не дивився


 Трекер:    Зареєстрований   

Завантажити / скачати фільм українською



відео для новачків



 Зареєстрований:   2018-09-01 08:44
 Розмір:   9.1 GB 
 Оцінка фільму:   8.3/10 (Голосів: 69)
   
AnkaPartizanka 
Поважний учасник


З нами з: 08.01.17
Востаннє: 13.12.18
Повідомлень: 161

2018-08-25 13:28  
Що ж з собою зробила Сандра Буллок?! Було неприємно на неї дивитись, хоча яка вона талановита акторка
Lil`Antoni 
VIP


З нами з: 25.02.12
Востаннє: 12.12.18
Повідомлень: 642

2018-08-28 20:38  
До друзів Оушена не дотягує. Добре що в кінотеатр не пішов.
В фільмографію не піде до мене.

AMOROSO 
Частий відвідувач


З нами з: 01.01.12
Востаннє: 09.12.18
Повідомлень: 42

2018-08-31 19:41  
Як на мене то рейтинг виправданий, досить непогане (хоча і трохи передбачуване) кіно
staf777 
Попереджень: 1
Попереджень: 1 


З нами з: 16.11.16
Востаннє: 13.12.18
Повідомлень: 1909

2018-09-01 08:47  
01.09.2018 Роздачу оновлено

Замінив відео на 1080p

vovchyck 
Поважний учасник


З нами з: 22.02.09
Востаннє: 13.12.18
Повідомлень: 150

2018-09-01 22:21  
переклад назви давали читати філологам? Бо здається має бути Вісім подруг Оушен. Ті цьотки ж не знали Оушена, тільки й'го сестру
0mage0 
VIP


З нами з: 06.10.15
Востаннє: 10.12.18
Повідомлень: 406

2018-10-23 15:18  
Дивитися можна, але окрім загальної недолугості і нереальності плану пограбування, є ще одна вада сюжету.
Оскільки знаменитість, яку грала Енн Гетевей була насправді їх спільницею, виходить, вони зробили купу зайвих рухів тільки для того, щоб зберегти це в таємниці від решти "команди".
vovchyck написано:
переклад назви давали читати філологам? Бо здається має бути Вісім подруг Оушен. Ті цьотки ж не знали Оушена, тільки й'го сестру

Гарне спостереження. Так, певно, мало б бути Оушен. Мабуть, вирішили "уніфікувати" назви в межах фільмів франшизи. А може ніхто й не думав про це Happy

Ваш часовий пояс: GMT + 2 Години

Нова тема   Відповісти