Піноккіо / Pinocchio (1940) Remux 1080p 3xUkr/2xEng | Sub Ukr/Eng

Нові коментарі

Нова тема   Відповісти
Автор Повідомлення
urij546724 
Відео Гуртом - фільмокрай
Відео Гуртом - фільмокрай


З нами з: 16.03.10
Востаннє: 07.03.21
Повідомлень: 5773

2018-08-22 06:12  
Піноккіо / Pinocchio (1940) Remux 1080p 3xUkr/2xEng | Sub Ukr/Eng



Жанр: анімація, комедія, сімейний, фентезі, музичний
Країна: США



Кіностудія / кінокомпанія: Walt Disney Productions
Режисери: Хемільтон Лацке (Hamilton Luske), Норман Фергюсон (Norman Ferguson), Вілфред Джексон (Wilfred Jackson), Т. Хей (T. Hee), Джек Кінні (Jack Kinney), Білл Робертс (Bill Roberts), Бен Шарпстен (Ben Sharpsteen)
Актори: Мел Бланк (Mel Blanc), Дон Броді (Don Brodie), Стюарт Б'юкенен (Stuart Buchanan), Вальтер Кетлетт (Walter Catlett), Маріон Дарлінгтон (Marion Darlington), Френкі Дарро (Frankie Darro), Кліфф Едвардс (Cliff Edwards), Дікі Джонс (Dickie Jones), Чарльз Юделс (Charles Judels), Джон МакЛейш (John McLeish)...

Сюжет:
Старий майстер Джепетто - самотній веселий чоловік зробив з дерева ляльку-маріонетку і назвав її Піноккіо. Коли падала зоря він загадав бажання, щоб Піноккіо став справжнім хлопчиком. Блакитна фея поставила умову - щоб стати справжнім, герой має проявити свою хоробрість і чесність у добрих справах. А ще вона призначила йому совість в обличчі малого цвіркуна для того, щоб той наглядав за Піноккіо. І ось вони відправляються назустріч незвичайним пригодам...


Тривалість: 01:27:44
Якість: Remux 1080p
Відео:
кодек:
розмір кадру: 1920 х 1080
бітрейт: ~28420 кб/с
частота кадрів: 23.976 к/с (fps)

Аудіо #1:
мова: українська
переклад: двоголосий закадровий
кодек: 2.0
бітрейт: 192 кб/с
запис звуку з каналу: ТВ4
дубльовано: Медіа Дім Рава

Аудіо #2:
мова: українська
переклад: двоголосий закадровий
кодек: 5.1
бітрейт: 448 кб/с
озвучено: Mister rock (Олексій Петренко) та МуЗа (Марина Наконечна)

Аудіо #3:
мова: українська
переклад: багатоголосий закадровий
кодек: 2.0
бітрейт: 192 кб/с
запис звуку з: касети VHS
озвучено: Так Треба Продакшн на замовлення відеокомпаніїї "ВІKКОН"

Аудіо #4:
мова: англійська
переклад: оригінал
кодек: -HD MA 7.1
бітрейт: 3730 кб/с

Аудіо #5:
мова: англійська
переклад: оригінал
кодек: 2.0
бітрейт: 192 кб/с
примітка: коментарі

Субтитри #1:
мова: українська
тип: програмні (м'які)
формат: *.srt

Субтитри #2:
мова: англійська
тип: програмні (м'які)
формат: *.srt

Субтитри #3:
мова: англійська
тип: програмні (м'які)
формат: *.srt
Media info:
General
Unique ID : 212605989526640856685950887980692655925 (0x9FF26C95A7815EC4BA8EF8FE53F3CF35)
Format :
Format version : Version 2
File size : 20.2 GiB
Duration : 1 h 27 min
Overall bit rate mode : Variable
Overall bit rate : 32.9 Mb/s
Movie name : Pinocchio (1940) [3xUkr_Eng, sub Ukr_2xEng] Remux 1080p [Hurtom] by urij546724
Encoded date : UTC 2018-08-21 17:00:08
Writing application : v2.9.7 ('Tenderness') built on Jul 1 2009 18:43:35
Writing library : libebml v0.7.7 + v0.8.1
Attachments : Pinocchio (1940) [3xUkr_Eng, sub Ukr_2xEng] Remux 1080p [Hurtom] by urij546724.jpg

Video
ID : 1
Format : AVC
Format/Info : Advanced Video Codec
Format profile : [email protected]
Format settings : CABAC / 3 Ref Frames
Format settings, CABAC : Yes
Format settings, ReFrames : 3 frames
Format settings, GOP : M=3, N=24
Codec ID : V_MPEG4/ISO/AVC
Duration : 1 h 27 min
Bit rate mode : Variable
Maximum bit rate : 40.0 Mb/s
Width : 1 920 pixels
Height : 1 080 pixels
Display aspect ratio : 16:9
Frame rate mode : Constant
Frame rate : 23.976 (24000/1001) FPS
Color space : YUV
Chroma subsampling : 4:2:0
Bit depth : 8 bits
Scan type : Progressive
Title : Pinocchio (1940) Remux 1080p [Hurtom] by urij546724
Language : English
Default : Yes
Forced : No

Audio #1
ID : 2
Format : AC-3
Format/Info : Audio Coding 3
Codec ID : A_AC3
Duration : 1 h 27 min
Bit rate mode : Constant
Bit rate : 192 kb/s
Channel(s) : 2 channels
Channel positions : Front: L R
Sampling rate : 48.0 kHz
Frame rate : 31.250 FPS (1536 SPF)
Bit depth : 16 bits
Compression mode : Lossy
Stream size : 120 MiB (1%)
Title : Українська доріжка (Медіа Дім Рава)
Language : Ukrainian
Service kind : Complete Main
Default : Yes
Forced : Yes

Audio #2
ID : 3
Format : AC-3
Format/Info : Audio Coding 3
Codec ID : A_AC3
Duration : 1 h 27 min
Bit rate mode : Constant
Bit rate : 448 kb/s
Channel(s) : 6 channels
Channel positions : Front: L C R, Side: L R, LFE
Sampling rate : 48.0 kHz
Frame rate : 31.250 FPS (1536 SPF)
Bit depth : 16 bits
Compression mode : Lossy
Stream size : 281 MiB (1%)
Title : Українська доріжка (Mister rock та МуЗа)
Language : Ukrainian
Service kind : Complete Main
Default : No
Forced : No

Audio #3
ID : 4
Format : AC-3
Format/Info : Audio Coding 3
Codec ID : A_AC3
Duration : 1 h 27 min
Bit rate mode : Constant
Bit rate : 192 kb/s
Channel(s) : 2 channels
Channel positions : Front: L R
Sampling rate : 48.0 kHz
Frame rate : 31.250 FPS (1536 SPF)
Bit depth : 16 bits
Compression mode : Lossy
Stream size : 120 MiB (1%)
Title : Українська доріжка (Так треба продакшн на замовлення відеокомпанії ВІККОН)
Language : Ukrainian
Service kind : Complete Main
Default : No
Forced : No

Audio #4
ID : 5
Format :
Format/Info : Digital Theater Systems
Format profile : MA / Core
Codec ID : A_DTS
Duration : 1 h 27 min
Bit rate mode : Variable / Constant
Bit rate : Unknown / 1 509 kb/s
Channel(s) : 8 channels / 6 channels
Channel positions : Front: L C R, Side: L R, Back: L R, LFE / Front: L C R, Side: L R, LFE
Sampling rate : 48.0 kHz
Frame rate : 93.750 FPS (512 SPF)
Bit depth : 24 bits
Compression mode : Lossless / Lossy
Title : Оригінальна доріжка
Language : English
Default : No
Forced : No

Audio #5
ID : 6
Format : AC-3
Format/Info : Audio Coding 3
Codec ID : A_AC3
Duration : 1 h 27 min
Bit rate mode : Constant
Bit rate : 192 kb/s
Channel(s) : 2 channels
Channel positions : Front: L R
Sampling rate : 48.0 kHz
Frame rate : 31.250 FPS (1536 SPF)
Bit depth : 16 bits
Compression mode : Lossy
Stream size : 120 MiB (1%)
Title : Коментарі
Language : English
Service kind : Complete Main
Default : No
Forced : No

Text #1
ID : 7
Format : UTF-8
Codec ID : S_TEXT/UTF8
Codec ID/Info : UTF-8 Plain Text
Title : Українські субтитри
Language : Ukrainian
Default : No
Forced : No

Text #2
ID : 8
Format : UTF-8
Codec ID : S_TEXT/UTF8
Codec ID/Info : UTF-8 Plain Text
Title : Оригінальні субтитри #1
Language : English
Default : No
Forced : No

Text #3
ID : 9
Format : UTF-8
Codec ID : S_TEXT/UTF8
Codec ID/Info : UTF-8 Plain Text
Title : Оригінальні субтитри #2
Language : English
Default : No
Forced : No
Скріншоти:





Трейлер:

Семпл
Джерело 1_________Джерело 2_________Джерело 3_________Джерело 4_________Джерело 5
У випадку, якщо з усіх джерел семпл видалять, прохання повідомити мені у ПРИВАТ


Подяка:

1. Пану urij546724, Пану Mister rock, Пану taramon і Пану pan_oleg за надані озвучки.
2. Пану TPEM за постер.


Джерело:


Золотий реліз (завантажене не впливає на рейтинг)
 Трекер:    Зареєстрований   

Завантажити / скачати мультфільм українською



відео для новачків



 Зареєстрований:   2018-08-22 06:12
 Розмір:   20.16 GB 
 Оцінка мультфільму:   10/10 (Голосів: 8)
 Прохання залишати коментарі і не тікати з роздачі.
   
Інші релізи
   Піноккіо / Pinocchio (1940) 1080p H.265 3хUkr/Eng | Sub Ukr/Eng -Star-Lord-  2 / 0   5.4 GB   2020-07-10 23:07 
   Піноккіо / Pinocchio (1940) AVC 3хUkr/Eng | Sub Ukr/Eng Arsenfpu  6 / 0   2.16 GB   2018-11-26 11:10 
   Піноккіо / Pinocchio (1940) 2хUkr/Eng | Sub Ukr/Eng MutuLI  4 / 0   1.85 GB   2011-12-23 17:18 
   Піноккіо / Pinocchio (1940) 1080p Ukr/Eng | Sub Ukr/Eng TPEM  8 / 1   3.98 GB   2011-01-06 08:31 
   Пінокіо / Pinocchio (1940) Ukr/Eng Mister rock  5 / 0   1.34 GB   2011-01-05 11:40 
Ваш часовий пояс: GMT + 2 Години

Нова тема   Відповісти