Молодість без молодості / Youth Without Youth (2007) 1080p Ukr/Eng | Sub Eng

Нові коментарі

Нова тема   Відповісти
Автор Повідомлення
Anonymous 







2018-08-22 05:35  
Молодість без молодості / Youth Without Youth (2007) 1080p Ukr/Eng | Sub Eng

Молодість без молодості / Youth Without Youth (2007) 1080p Ukr/Eng | Sub Eng
Альтернативний постер:



Жанр: драма, фантастика, містика
Країна: США, Румунія, Франція, Італія, Німеччина



Кінокомпанія: American Zoetrope, SRG Atelier, Pricel
Режисер: Френсіс Форд Коппола / Francis Ford Coppola
Актори: Тім Рот / Tim Roth, Олександра Марія Лара / Alexandra Maria Lara, Бруно Ганц / Bruno Ganz, Андре Хеніке / André Hennicke, Марсель Юреш / Marcel Iures, Едрієн Пінтеа / Adrian Pintea та інші

Сюжет:
Фільм розповідає історію професора лінгвістики, який, не зумівши завершити працю всього свого життя, приймає рішення про самогубство. Але в день, коли він планував здійснити задумане, в нього потрапляє блискавка. Всупереч всьому професору вдається не тільки зберегти життя, але і знайти втрачену молодість. Проте він вимушений змінити ім'я і бігти з країни, щоб сховатися від переслідувань нацистів, охочих використовувати феномен, що відбувся з ним, для створення нової людської раси.


Тривалість: 02:04:57
Якість: 1080p
Відео:
кодек:
розмір кадру: 1920х816
бітрейт: 9597 кб/с

Аудіо # 1:
мова: українська
переклад: багатоголосий закадровий
кодек: 5.1
бітрейт: 448 кб/с

Аудіо # 2:
мова: англійська
переклад: оригінал
кодек: 5.1
бітрейт: 1510 кб/с

Субтитри:
мова: англійська
тип: програмні (м'які)
формат: *.srt
Info
General
Unique ID : 172540580626575215929088141716183986585 (0x81CE1B69ED518BF49AFEE4C9DC4E3199)
Format :
Format version : Version 4 / Version 2
File size : 10.1 GiB
Duration : 2 h 4 min
Overall bit rate : 11.5 Mb/s
Encoded date : UTC 2018-08-22 02:28:58
Writing application : v6.1.0 ('Old Devil') built on Mar 4 2013 09:10:42
Writing library : libebml v1.3.0 + v1.4.0

Video
ID : 1
Format : AVC
Format/Info : Advanced Video Codec
Format profile : [email protected]
Format settings : CABAC / 5 Ref Frames
Format settings, CABAC : Yes
Format settings, ReFrames : 5 frames
Codec ID : V_MPEG4/ISO/AVC
Duration : 2 h 4 min
Bit rate : 9 597 kb/s
Width : 1 920 pixels
Height : 816 pixels
Display aspect ratio : 2.35:1
Frame rate mode : Constant
Frame rate : 23.976 (24000/1001) FPS
Color space : YUV
Chroma subsampling : 4:2:0
Bit depth : 8 bits
Scan type : Progressive
Bits/(Pixel*Frame) : 0.255
Stream size : 8.17 GiB (81%)
Writing library : core 112 r1834 a51816a
Encoding settings : cabac=1 / ref=5 / deblock=1:0:0 / analyse=0x3:0x113 / me=umh / subme=10 / psy=1 / psy_rd=1.00:0.00 / mixed_ref=1 / me_range=32 / chroma_me=1 / trellis=2 / 8x8dct=1 / cqm=0 / deadzone=21,11 / fast_pskip=0 / chroma_qp_offset=-2 / threads=6 / sliced_threads=0 / nr=0 / decimate=0 / interlaced=0 / constrained_intra=0 / bframes=11 / b_pyramid=2 / b_adapt=2 / b_bias=0 / direct=3 / weightb=1 / open_gop=0 / weightp=2 / keyint=250 / keyint_min=23 / scenecut=40 / intra_refresh=0 / rc_lookahead=0 / rc=2pass / mbtree=0 / bitrate=9597 / ratetol=1.0 / qcomp=0.65 / qpmin=0 / qpmax=51 / qpstep=4 / cplxblur=20.0 / qblur=0.5 / vbv_maxrate=50000 / vbv_bufsize=62500 / ip_ratio=1.40 / pb_ratio=1.30 / aq=1:0.80 / nal_hrd=none
Language : English
Default : Yes
Forced : No
Color range : Limited
Matrix coefficients : BT.709

Audio #1
ID : 2
Format : AC-3
Format/Info : Audio Coding 3
Codec ID : A_AC3
Duration : 2 h 4 min
Bit rate mode : Constant
Bit rate : 448 kb/s
Channel(s) : 6 channels
Channel positions : Front: L C R, Side: L R, LFE
Sampling rate : 48.0 kHz
Frame rate : 31.250 FPS (1536 SPF)
Bit depth : 16 bits
Compression mode : Lossy
Stream size : 400 MiB (4%)
Title : Ukrainian | 5.1 448 Kbps
Language : Ukrainian
Service kind : Complete Main
Default : Yes
Forced : Yes

Audio #2
ID : 3
Format :
Format/Info : Digital Theater Systems
Codec ID : A_DTS
Duration : 2 h 4 min
Bit rate mode : Constant
Bit rate : 1 510 kb/s
Channel(s) : 6 channels
Channel positions : Front: L C R, Side: L R, LFE
Sampling rate : 48.0 kHz
Frame rate : 93.750 FPS (512 SPF)
Bit depth : 24 bits
Compression mode : Lossy
Stream size : 1.32 GiB (13%)
Title : English | 5.1 1536 Kbps
Language : English
Default : No
Forced : No

Text
ID : 4
Format : UTF-8
Codec ID : S_TEXT/UTF8
Codec ID/Info : UTF-8 Plain Text
Title : English (SRT)
Language : English
Default : No
Forced : No
Скріншоти







Виготовлення постеру: Ham_R, realNitro
За доріжку подяка п. taraskill1
Особиста подяка пану denixx за надану матеріальну допомогу на підтримку цього і майбутніх релізів.
Джерело:


 Трекер:    Зареєстрований   

Завантажити / скачати фільм українською



відео для новачків



 Зареєстрований:   2018-08-22 05:35
 Розмір:   10.08 GB 
 Оцінка фільму:   8.5/10 (Голосів: 6)
   
Ваш часовий пояс: GMT + 2 Години

Нова тема   Відповісти