Великі очі / Очиська / Big Eyes (2014) mini 1080p H.265 Ukr/Eng | Sub Eng

Нові коментарі

Нова тема   Відповісти
Автор Повідомлення
Anonymous 







2018-08-21 22:09  
Великі очі / Очиська / Big Eyes (2014) mini 1080p H.265 Ukr/Eng | Sub Eng

Великі очі / Очиська / Big Eyes (2014) mini 1080p H.265 Ukr/Eng | Sub Eng


Жанр: біографічний, драма
Країна: США, Канада



Кінокомпанія: Weinstein Company, The, Silverwood Films, Tim Burton Productions
Режисер: Тім Бертон
Актори: Емі Адамс, Крістоф Вальц, Крістен Ріттер, Джейсон Шварцмен, Денні Г'юстон, Теренс Стемп, Джон Політо, Елізабетта Фантоні, Джеймс Саїто, Ґвідо Фурлані

Сюжет:
Яскрава і квітуча Америка 50-х. У соковитих фарбах Сан-Франциско зароджується те, що зруйнує традиційний погляд на мистецтво і безповоротно змінить те, як виглядає наше життя. Художник Волтер Кін, який з'явився з нізвідки придумав поп-арт. Його незвичайні картини, що зображують зворушливих дітей з величезними очима, викликали справжній фурор і буквально заполонили весь світ. Їх друкують на календарях, листівках, домогосподарки хизуються ними на фартухах. Волтер стає королем сучасного мистецтва, одним з найвідоміших арт-діячів планети. Але на піку слави художника його скромна дружина Маргарет раптом стверджує, що Волтер - шахрай, і саме вона - автор знаменитих картин. Несподівано відкриваються шокуючі подробиці життя подружжя Кін. Весь світ завмер в очікуванні відповіді на питання: хто ж все-таки той геній, чиї сміливі та оригінальні картини прикрашають тепер кожну вітальню від Парижа до Аляски?


Тривалість: 01:45:44
Якість:
Відео:
кодек: H.265 (HEVC)
розмір кадру: 1920 х 1080
бітрейт: 4 751 кб/с
бітова глибина: 10 біт
Увага! Перед завантаженням переконайтесь, що ваш пристрій відтворення (та/або ПЗ) підтримує H.265 (HEVC)

Аудіо # 1:
мова: українська
переклад: професійний дубльований
кодек: 2.0
бітрейт: 192 кб/с

Аудіо # 2:
мова: англійська
переклад: оригінал
кодек: 5.1
бітрейт: 403 кб/с

Субтитри:
мова: англійська
тип: програмні (м'які)
формат: .VobSub
Info
Код:
General
Unique ID                                : 133926375530602815146157157454883368820 (0x64C1481D583ADA7A125799C94088AF74)
Complete name                            : F:\Video\Big Eyes (2014) 1080p H.265 [UKR_ENG].
Format                                   :
Format version                           : Version 4 / Version 2
File size                                : 3.96 GiB
Duration                                 : 1 h 45 min
Overall bit rate                         : 5 356 kb/s
Movie name                               : Big Eyes (2014)
Encoded date                             : UTC 2018-08-21 12:46:50
Writing application                      : v20.0.0 ('I Am The Sun') 32-bit
Writing library                          : libebml v1.3.5 + v1.4.8
Attachments                              : poster.jpg

Video
ID                                       : 1
Format                                   : HEVC
Format/Info                              : High Efficiency Video Coding
Format profile                           : Main [email protected]@Main
Codec ID                                 : V_MPEGH/ISO/HEVC
Duration                                 : 1 h 45 min
Bit rate                                 : 4 751 kb/s
Width                                    : 1 920 pixels
Height                                   : 1 080 pixels
Display aspect ratio                     : 16:9
Frame rate mode                          : Constant
Frame rate                               : 23.976 (24000/1001) FPS
Color space                              : YUV
Chroma subsampling                       : 4:2:0
Bit depth                                : 10 bits
Bits/(Pixel*Frame)                       : 0.096
Stream size                              : 3.51 GiB (89%)
Writing library                          : x265 2.8+40-0106f9f2f867:[Windows][GCC 7.3.0][64 bit] 10bit
Encoding settings                        : cpuid=1111039 / frame-threads=3 / numa-pools=8 / wpp / no-pmode / no-pme / no-psnr / no-ssim / log-level=2 / input-csp=1 / input-res=1920x1080 / interlace=0 / total-frames=152112 / level-idc=0 / high-tier=1 / uhd-bd=0 / ref=4 / no-allow-non-conformance / no-repeat-headers / annexb / no-aud / no-hrd / info / hash=0 / no-temporal-layers / open-gop / min-keyint=23 / keyint=250 / gop-lookahead=0 / bframes=4 / b-adapt=2 / b-pyramid / bframe-bias=0 / rc-lookahead=25 / lookahead-slices=4 / scenecut=40 / radl=0 / no-intra-refresh / ctu=64 / min-cu-size=8 / rect / no-amp / max-tu-size=32 / tu-inter-depth=1 / tu-intra-depth=1 / limit-tu=0 / rdoq-level=2 / dynamic-rd=0.00 / no-ssim-rd / signhide / no-tskip / nr-intra=0 / nr-inter=0 / no-constrained-intra / strong-intra-smoothing / max-merge=3 / limit-refs=3 / limit-modes / me=3 / subme=3 / merange=57 / temporal-mvp / weightp / no-weightb / no-analyze-src-pics / deblock=0:0 / sao / no-sao-non-deblock / rd=4 / no-early-skip / rskip / no-fast-intra / no-tskip-fast / no-cu-lossless / no-b-intra / no-splitrd-skip / rdpenalty=0 / psy-rd=2.00 / psy-rdoq=1.00 / no-rd-refine / no-lossless / cbqpoffs=0 / crqpoffs=0 / rc=abr / bitrate=4750 / qcomp=0.60 / qpstep=4 / stats-write=0 / stats-read=2 / cplxblur=20.0 / qblur=0.5 / ipratio=1.40 / pbratio=1.30 / aq-mode=3 / aq-strength=1.00 / cutree / zone-count=0 / no-strict-cbr / qg-size=32 / no-rc-grain / qpmax=69 / qpmin=0 / no-const-vbv / sar=0 / overscan=0 / videoformat=5 / range=0 / colorprim=2 / transfer=2 / colormatrix=2 / chromaloc=0 / display-window=0 / max-cll=0,0 / min-luma=0 / max-luma=1023 / log2-max-poc-lsb=8 / vui-timing-info / vui-hrd-info / slices=1 / no-opt-qp-pps / no-opt-ref-list-length-pps / multi-pass-opt-rps / scenecut-bias=0.05 / no-opt-cu-delta-qp / aq-motion / no-hdr / no-hdr-opt / no-dhdr10-opt / no-idr-recovery-sei / analysis-reuse-level=5 / scale-factor=0 / refine-intra=0 / refine-inter=0 / refine-mv=0 / no-limit-sao / ctu-info=0 / no-lowpass-dct / refine-mv-type=0 / copy-pic=1 / max-ausize-factor=1.0 / no-dynamic-refine / no-single-sei
Default                                  : Yes
Forced                                   : No

Audio #1
ID                                       : 2
Format                                   : AC-3
Format/Info                              : Audio Coding 3
Codec ID                                 : A_AC3
Duration                                 : 1 h 45 min
Bit rate mode                            : Constant
Bit rate                                 : 192 kb/s
Channel(s)                               : 2 channels
Channel positions                        : Front: L R
Sampling rate                            : 48.0 kHz
Frame rate                               : 31.250 FPS (1536 SPF)
Bit depth                                : 16 bits
Compression mode                         : Lossy
Stream size                              : 145 MiB (4%)
Title                                    : UKR (line)
Language                                 : Ukrainian
Service kind                             : Complete Main
Default                                  : Yes
Forced                                   : No

Audio #2
ID                                       : 3
Format                                   :
Format/Info                              : Advanced Audio Codec
Format profile                           : LC
Codec ID                                 : A_AAC-2
Duration                                 : 1 h 45 min
Bit rate                                 : 403 kb/s
Channel(s)                               : 6 channels
Channel positions                        : Front: L C R, Side: L R, LFE
Sampling rate                            : 48.0 kHz
Frame rate                               : 46.875 FPS (1024 SPF)
Compression mode                         : Lossy
Delay relative to video                  : 20 ms
Stream size                              : 305 MiB (8%)
Language                                 : English
Default                                  : No
Forced                                   : No

Text
ID                                       : 4
Format                                   : VobSub
Muxing mode                              : zlib
Codec ID                                 : S_VOBSUB
Codec ID/Info                            : Picture based subtitle format used on DVDs
Duration                                 : 1 h 37 min
Bit rate                                 : 11.3 kb/s
Count of elements                        : 1275
Stream size                              : 7.93 MiB (0%)
Language                                 : English
Default                                  : No
Forced                                   : No

Menu
00:00:00.000                             : en:Chapter 01
00:06:44.320                             : en:Chapter 02
00:14:34.290                             : en:Chapter 03
00:21:45.512                             : en:Chapter 04
00:27:12.380                             : en:Chapter 05
00:35:10.233                             : en:Chapter 06
00:40:54.410                             : en:Chapter 07
00:46:49.640                             : en:Chapter 08
00:52:36.778                             : en:Chapter 09
00:58:04.647                             : en:Chapter 10
01:03:45.655                             : en:Chapter 11
01:10:49.411                             : en:Chapter 12
01:17:40.238                             : en:Chapter 13
01:26:03.533                             : en:Chapter 14
01:32:05.728                             : en:Chapter 15
01:39:00.392                             : en:Chapter 16
Скріншоти




Джерело:
Особиста оцінка: 10 - без зайвих вагань рекомендую всім!
ЗАЛИШАЙТЕСЬ ЯКОМОГА ДОВШЕ НА РОЗДАЧІ!
ЗАВАНТАЖИВ САМ - ДАЙ ЗАВАНТАЖИТИ ІНШИМ


 Трекер:    Зареєстрований   

Завантажити / скачати фільм українською



відео для новачків



 Зареєстрований:   2018-08-21 22:09
 Розмір:   3.96 GB 
 Оцінка фільму:   9.7/10 (Голосів: 3)
   
Інші релізи
   Великі очі / Очиська / Big Eyes (2014) AVC Ukr/Eng Gelios  9 / 0   1.45 GB   2015-04-03 20:06 
Ваш часовий пояс: GMT + 2 Години

Нова тема   Відповісти