Останній Імператор / The Last Emperor (1987) 720p 2xUkr/Eng | Sub Eng

Нові коментарі

Нова тема   Відповісти
Автор Повідомлення
Anonymous 







2018-08-21 19:21  
Останній Імператор / The Last Emperor (1987) 720p 2xUkr/Eng | Sub Eng

Останній Імператор / The Last Emperor (1987) 720p 2xUkr/Eng | Sub Eng


Жанр: драма, історичний, біографічний
Країна: Велика Британія, Франція, Італія, Китай



Кінокомпанія: Recorded Picture Company (RPC), Hemdale Film, Yanco Films Limited
Режисер: Бернардо Бертолуччі
Актори: Джон Лоун, Джоан Чен, Пітер О'Тул, Руочен Йінг, Віктор Геть, Денніс Дун, Рюїті Сакамото, Мегі Хан, Рік Янг, Вівіан Ву

Сюжет:
Він був повелителем мільярда чоловік. Йому було наврочено «десять тисяч років щастя». Але світ древніх традицій зруйнувався під натиском століття змін. У 1908 році трирічного Пу І, останнього з династії, що тисячі років правила «Піднебесною імперією», було зведено на Трон Дракона.
До імператора-дитяти відносяться як до божества. Він може робити все, окрім одного - покидати межі свого палацу. У Заборонене місто не долітають «вітри змін», що стрясають світ за його стінами. Але життя останнього імператора Китаю виявляється частиною всієї великої історії XX століття.


Тривалість: 02:43:05
Якість: 720p
Відео:
кодек:
розмір кадру: 1280х640
бітрейт: 5824 кб/с

Аудіо # 1:
мова: українська
переклад: багатоголосий закадровий
кодек: 2.0
бітрейт: 192 кб/с

Аудіо # 2:
мова: українська
переклад: багатоголосий закадровий
кодек: 2.0
бітрейт: 192 кб/с

Аудіо # 3:
мова: англійська
переклад: оригінал
кодек: 2.0
бітрейт: 384 кб/с

Субтитри:
мова: англійська
тип: програмні (м'які)
формат: VobSub
Info
General
Unique ID : 178499232491754539770716785313552172640 (0x8649B3A1FEC6D21798E723084A268660)
Format :
Format version : Version 4 / Version 2
File size : 7.52 GiB
Duration : 2 h 43 min
Overall bit rate : 6 600 kb/s
Encoded date : UTC 2018-08-21 16:11:48
Writing application : v6.1.0 ('Old Devil') built on Mar 4 2013 09:10:42
Writing library : libebml v1.3.0 + v1.4.0

Video
ID : 1
Format : AVC
Format/Info : Advanced Video Codec
Format profile : [email protected]
Format settings : CABAC / 9 Ref Frames
Format settings, CABAC : Yes
Format settings, ReFrames : 9 frames
Codec ID : V_MPEG4/ISO/AVC
Duration : 2 h 43 min
Bit rate : 5 824 kb/s
Width : 1 280 pixels
Height : 640 pixels
Display aspect ratio : 2.000
Frame rate mode : Constant
Frame rate : 23.976 (24000/1001) FPS
Color space : YUV
Chroma subsampling : 4:2:0
Bit depth : 8 bits
Scan type : Progressive
Bits/(Pixel*Frame) : 0.297
Stream size : 6.49 GiB (86%)
Writing library : core 129 r2245 bc13772
Encoding settings : cabac=1 / ref=9 / deblock=1:-3:-3 / analyse=0x3:0x133 / me=umh / subme=10 / psy=1 / psy_rd=1.12:0.00 / mixed_ref=1 / me_range=32 / chroma_me=1 / trellis=2 / 8x8dct=1 / cqm=0 / deadzone=21,11 / fast_pskip=0 / chroma_qp_offset=-2 / threads=10 / lookahead_threads=1 / sliced_threads=0 / nr=0 / decimate=1 / interlaced=0 / bluray_compat=0 / constrained_intra=0 / bframes=7 / b_pyramid=2 / b_adapt=1 / b_bias=0 / direct=3 / weightb=1 / open_gop=0 / weightp=2 / keyint=240 / keyint_min=22 / scenecut=40 / intra_refresh=0 / rc_lookahead=40 / rc=2pass / mbtree=1 / bitrate=5824 / ratetol=1.0 / qcomp=0.60 / qpmin=10 / qpmax=69 / qpstep=4 / cplxblur=20.0 / qblur=0.5 / ip_ratio=1.40 / aq=1:1.00
Default : Yes
Forced : No

Audio #1
ID : 2
Format : AC-3
Format/Info : Audio Coding 3
Codec ID : A_AC3
Duration : 2 h 43 min
Bit rate mode : Constant
Bit rate : 192 kb/s
Channel(s) : 2 channels
Channel positions : Front: L R
Sampling rate : 48.0 kHz
Frame rate : 31.250 FPS (1536 SPF)
Bit depth : 16 bits
Compression mode : Lossy
Stream size : 224 MiB (3%)
Title : UKR (Inter)
Language : Ukrainian
Service kind : Complete Main
Default : Yes
Forced : Yes

Audio #2
ID : 3
Format : AC-3
Format/Info : Audio Coding 3
Codec ID : A_AC3
Duration : 2 h 43 min
Bit rate mode : Constant
Bit rate : 192 kb/s
Channel(s) : 2 channels
Channel positions : Front: L R
Sampling rate : 48.0 kHz
Frame rate : 31.250 FPS (1536 SPF)
Bit depth : 16 bits
Compression mode : Lossy
Stream size : 224 MiB (3%)
Title : UKR (1+1)
Language : Ukrainian
Service kind : Complete Main
Default : No
Forced : No

Audio #3
ID : 4
Format : AC-3
Format/Info : Audio Coding 3
Codec ID : A_AC3
Duration : 2 h 43 min
Bit rate mode : Constant
Bit rate : 384 kb/s
Channel(s) : 2 channels
Channel positions : Front: L R
Sampling rate : 48.0 kHz
Frame rate : 31.250 FPS (1536 SPF)
Bit depth : 16 bits
Compression mode : Lossy
Stream size : 448 MiB (6%)
Language : English
Service kind : Complete Main
Default : No
Forced : No

Text
ID : 5
Format : VobSub
Codec ID : S_VOBSUB
Codec ID/Info : Picture based subtitle format used on DVDs
Language : English
Default : No
Forced : No

Menu
00:00:00.000 : :Manchuria, 1950
00:06:48.116 : :Peking, 1908
00:14:52.558 : :First coronation
00:18:35.072 : :The young emperor
00:21:18.527 : :Criminal
00:23:25.529 : :Pu Chieh
00:32:33.577 : :A new republic
00:37:12.897 : :Reginald Johnston
00:41:47.505 : :First lesson
00:45:40.738 : :Protests
00:49:51.822 : :Grief
00:57:12.095 : :Spectacles
01:00:31.127 : :Two wives
01:05:00.897 : :Strangers
01:10:31.310 : :Confession
01:13:32.867 : :Reforms
01:21:55.911 : :Departures
01:28:11.620 : :Life outside
01:34:59.777 : :Secondary consort
01:43:01.008 : :Tientsin, 1931
01:47:11.133 : :Manchuria, 1934
01:53:13.620 : :Second coronation
02:02:20.124 : :New quarters
02:05:08.626 : :Manchuria, 1935
02:13:03.058 : :Puppet
02:18:07.821 : :The Russians
02:25:25.383 : :Freedom
02:28:50.797 : :Peking, 1967
02:34:42.064 : :Citizen
Скріншоти








За українські доріжки дякую пану Tanat13, за постер - Воїну
Особиста подяка пану denixx за надану матеріальну допомогу на підтримку цього і майбутніх релізів.
Джерело:


Срібний реліз (на рейтинг впливає 50% завантаженого)
 Трекер:    Зареєстрований   

Завантажити / скачати фільм українською



відео для новачків



 Зареєстрований:   2018-08-21 19:21
 Розмір:   7.52 GB 
 Оцінка фільму:   9.7/10 (Голосів: 3)
   
Ваш часовий пояс: GMT + 2 Години

Нова тема   Відповісти