Сиріана / Syriana (2005) 720p Ukr/Eng | Sub Eng

Нові коментарі

Нова тема   Відповісти
Автор Повідомлення
Anonymous 







2018-08-21 17:56  
Сиріана / Syriana (2005) 720p Ukr/Eng | Sub Eng

Сиріана / Syriana (2005) 720p Ukr/Eng | Sub Eng


Жанр: трилер, драма
Країна: США



Кінокомпанія: Warner Bros. Pictures, Participant Productions, 4M
Режисер: Стівен Геган
Актори: Джордж Клуні, Метт Деймон, Кайван Новак, Амр Вакід, Крістофер Пламмер, Джеффрі Райт, Кріс Купер, Роберт Фоксуорт, Ніккі Хенсон, Ніколас Арт

Сюжет:
Роберт Баєр - ветеран ЦРУ, що пропрацював в агентстві 21 рік. Весь цей час він боровся з тероризмом у всьому світі. Проте, після закінчення «холодної війни», коли загроза тероризму зросла, ЦРУ урізали фінансування проектів на Близькому Сході і в підсумку втратило контроль над стратегічно важливим регіоном.

Боротьба розпалюється з новою силою і набуває особистого характеру, коли керівник нафтової компанії Брайан Вудман готується зробити операцію з шейхом однієї з країн Близького Сходу, багатою нафтою, і, в той же час, переживає серйозну сімейну трагедію з своєю дружиною Джулі ...


Тривалість: 02:07:44
Якість: 720p
Відео:
кодек:
розмір кадру: 1276х528
бітрейт: 7 660 кб/с

Аудіо # 1:
мова: українська
переклад: багатоголосий закадровий
кодек: 5.1
бітрейт: 384 кб/с

Аудіо # 2:
мова: англійська
переклад: оригінал
кодек: 5.1
бітрейт: 640 кб/с

Субтитри:
мова: англійська
тип: програмні (м'які)
формат: *.srt
Info
General
Unique ID : 181514265833828546833953283687503746616 (0x888E6040E633666A8B9C7BB2ED79D638)
Complete name : H:\Toloka\2018\Syriana (2005) 720p.
Format :
Format version : Version 4 / Version 2
File size : 7.91 GiB
Duration : 2 h 7 min
Overall bit rate : 8 861 kb/s
Movie name : Syriana (2005)
Encoded date : UTC 2018-08-21 14:49:05
Writing application : v6.1.0 ('Old Devil') built on Mar 4 2013 09:10:42
Writing library : libebml v1.3.0 + v1.4.0

Video
ID : 1
Format : AVC
Format/Info : Advanced Video Codec
Format profile : [email protected]
Format settings : CABAC / 12 Ref Frames
Format settings, CABAC : Yes
Format settings, ReFrames : 12 frames
Codec ID : V_MPEG4/ISO/AVC
Duration : 2 h 7 min
Bit rate : 7 660 kb/s
Width : 1 276 pixels
Height : 528 pixels
Display aspect ratio : 2.40:1
Frame rate mode : Constant
Frame rate : 23.976 (24000/1001) FPS
Color space : YUV
Chroma subsampling : 4:2:0
Bit depth : 8 bits
Scan type : Progressive
Bits/(Pixel*Frame) : 0.474
Stream size : 6.84 GiB (86%)
Writing library : core 142 r2431 ac76440
Encoding settings : cabac=1 / ref=12 / deblock=1:-3:-3 / analyse=0x3:0x113 / me=umh / subme=10 / psy=1 / psy_rd=1.05:0.00 / mixed_ref=1 / me_range=32 / chroma_me=1 / trellis=2 / 8x8dct=1 / cqm=0 / deadzone=21,11 / fast_pskip=0 / chroma_qp_offset=-2 / threads=6 / lookahead_threads=1 / sliced_threads=0 / nr=0 / decimate=1 / interlaced=0 / bluray_compat=0 / constrained_intra=0 / bframes=9 / b_pyramid=2 / b_adapt=2 / b_bias=0 / direct=2 / weightb=1 / open_gop=0 / weightp=2 / keyint=240 / keyint_min=23 / scenecut=40 / intra_refresh=0 / rc_lookahead=60 / rc=crf / mbtree=0 / crf=15.7 / qcomp=0.60 / qpmin=0 / qpmax=69 / qpstep=4 / vbv_maxrate=62500 / vbv_bufsize=78125 / crf_max=0.0 / nal_hrd=none / filler=0 / ip_ratio=1.20 / pb_ratio=1.10 / aq=1:0.90
Language : English
Default : Yes
Forced : No
Statistics Tags Issue : v19.0.0 ('Brave Captain') 64-bit 2018-04-21 11:44:26 / v6.1.0 ('Old Devil') built on Mar 4 2013 09:10:42 2018-08-21 14:49:05
FromStats_BitRate : 7834367
FromStats_Duration : 02:07:44.782000000
FromStats_FrameCount : 183771
FromStats_StreamSize : 7506089676

Audio #1
ID : 2
Format : AC-3
Format/Info : Audio Coding 3
Codec ID : A_AC3
Duration : 2 h 7 min
Bit rate mode : Constant
Bit rate : 384 kb/s
Channel(s) : 6 channels
Channel positions : Front: L C R, Side: L R, LFE
Sampling rate : 48.0 kHz
Frame rate : 31.250 FPS (1536 SPF)
Bit depth : 16 bits
Compression mode : Lossy
Stream size : 351 MiB (4%)
Title : UKR (K1)
Language : Ukrainian
Service kind : Complete Main
Default : Yes
Forced : Yes

Audio #2
ID : 3
Format : AC-3
Format/Info : Audio Coding 3
Codec ID : A_AC3
Duration : 2 h 7 min
Bit rate mode : Constant
Bit rate : 640 kb/s
Channel(s) : 6 channels
Channel positions : Front: L C R, Side: L R, LFE
Sampling rate : 48.0 kHz
Frame rate : 31.250 FPS (1536 SPF)
Bit depth : 16 bits
Compression mode : Lossy
Stream size : 585 MiB (7%)
Language : English
Service kind : Complete Main
Default : No
Forced : No
Statistics Tags Issue : v19.0.0 ('Brave Captain') 64-bit 2018-04-21 11:44:26 / v6.1.0 ('Old Devil') built on Mar 4 2013 09:10:42 2018-08-21 14:49:05
FromStats_BitRate : 640000
FromStats_Duration : 02:07:44.800000000
FromStats_FrameCount : 239525
FromStats_StreamSize : 613184000

Text
ID : 4
Format : UTF-8
Codec ID : S_TEXT/UTF8
Codec ID/Info : UTF-8 Plain Text
Language : English
Default : No
Forced : No
Statistics Tags Issue : v19.0.0 ('Brave Captain') 64-bit 2018-04-21 11:44:26 / v6.1.0 ('Old Devil') built on Mar 4 2013 09:10:42 2018-08-21 14:49:05
FromStats_BitRate : 43
FromStats_Duration : 02:05:22.871000000
FromStats_FrameCount : 1050
FromStats_StreamSize : 40997
Скріншоти







За українську доріжку подяка п.: МАКАРОННІК, JACKUS
За постер подяка п. Gelios
Особиста подяка пану denixx за надану матеріальну допомогу на підтримку цього і майбутніх релізів.
Джерело:


 Трекер:    Зареєстрований   

Завантажити / скачати фільм українською



відео для новачків



 Зареєстрований:   2018-08-21 17:56
 Розмір:   7.91 GB 
 Оцінка фільму:   10/10 (Голосів: 2)
   
Інші релізи
   Сиріана / Syriana (2005) Remux 1080p Ukr/Eng | Sub Eng igor911  3 / 0   13.36 GB   2017-08-26 14:53 
   Сиріана / Syriana (2005) Ukr/Eng | sub Eng JACKUS  2 / 0   2.18 GB   2011-03-13 20:42 
Ваш часовий пояс: GMT + 2 Години

Нова тема   Відповісти