Воно / It (2017) 1080p H.265 Ukr/Eng | Sub Eng

Нові коментарі

Нова тема   Відповісти
Автор Повідомлення
-Star-Lord- 
Поважний учасник


З нами з: 09.08.18
Востаннє: 19.10.18
Повідомлень: 210

2018-08-21 13:55  
Воно / It (2017) 1080p H.265 Ukr/Eng | Sub Eng

Воно / It (2017) 1080p H.265 Ukr/Eng | Sub Eng


Жанр: драма, жахи, триллер
Країна: США



Кінокомпанія: New Line Cinema, KatzSmith Productions, Lin Pictures, RatPac-Dune Entertainment, Vertigo Entertainment
Режисер: Андрес Мускетті
Актори: Джейден Ліберер, Джеремі Рей Тейлор, Софія Лілліс, Фінн Вольфхард, Чоузен Джейкобс, Джек Грейзер, Вайатт Олефф, Білл Скарсгард

Сюжет:
Одержимий демоном клоун Пеннівайз, який переховується в каналізації, полює на групу дітей, відомих як «Клуб лузерів», які живуть в містечку Деррі, штат Мен.


Тривалість: 02:14:42
Якість:
Відео:
кодек: H.265 (HEVC)
розмір кадру: 1920 х 800
бітрейт: 5 977 кб/с
бітова глибина: 10 біт
Увага! Перед завантаженням переконайтесь, що ваш пристрій відтворення (та/або ПЗ) підтримує H.265 (HEVC)

Аудіо # 1:
мова: українська
переклад: професійний дубльований
кодек: 2.0
бітрейт: 192 кб/с

Аудіо # 2:
мова: англійська
переклад: оригінал
кодек: 5.1
бітрейт: 448 кб/с

Субтитри # 1:
мова: українська
тип: програмні (м'які)
формат: *.srt

Субтитри # 2-3:
мова: англійська
тип: програмні (м'які)
формат: *.srt
Info
Код:
General
Unique ID                                : 234997315323995877662212307504882503850 (0xB0CAD62E4183E84280D3063BC563D0AA)
Complete name                            : F:\Video\It (2017) 1080p H.265 [UKR_ENG].
Format                                   :
Format version                           : Version 4 / Version 2
File size                                : 6.23 GiB
Duration                                 : 2 h 14 min
Overall bit rate                         : 6 619 kb/s
Movie name                               : It (2017)
Encoded date                             : UTC 2018-08-20 12:33:56
Writing application                      : v20.0.0 ('I Am The Sun') 32-bit
Writing library                          : libebml v1.3.5 + v1.4.8
Cover                                    : Yes
Attachments                              : cover

Video
ID                                       : 1
Format                                   : HEVC
Format/Info                              : High Efficiency Video Coding
Format profile                           : Main [email protected]@Main
Codec ID                                 : V_MPEGH/ISO/HEVC
Duration                                 : 2 h 14 min
Bit rate                                 : 5 977 kb/s
Width                                    : 1 920 pixels
Height                                   : 800 pixels
Display aspect ratio                     : 2.40:1
Frame rate mode                          : Constant
Frame rate                               : 23.976 (24000/1001) FPS
Color space                              : YUV
Chroma subsampling                       : 4:2:0
Bit depth                                : 10 bits
Bits/(Pixel*Frame)                       : 0.162
Stream size                              : 5.62 GiB (90%)
Writing library                          : x265 2.8+19-bcdc610cf5f0:[Windows][GCC 7.3.0][64 bit] 10bit
Encoding settings                        : cpuid=1049583 / frame-threads=5 / numa-pools=4 / wpp / no-pmode / no-pme / no-psnr / no-ssim / log-level=3 / input-csp=1 / input-res=1920x800 / interlace=0 / total-frames=0 / level-idc=51 / high-tier=1 / uhd-bd=0 / ref=5 / allow-non-conformance / no-repeat-headers / annexb / no-aud / no-hrd / info / hash=0 / no-temporal-layers / open-gop / min-keyint=24 / keyint=240 / gop-lookahead=0 / bframes=8 / b-adapt=2 / b-pyramid / bframe-bias=0 / rc-lookahead=20 / lookahead-slices=5 / scenecut=40 / radl=0 / no-intra-refresh / ctu=64 / min-cu-size=8 / no-rect / no-amp / max-tu-size=32 / tu-inter-depth=1 / tu-intra-depth=1 / limit-tu=0 / rdoq-level=0 / dynamic-rd=0.00 / no-ssim-rd / signhide / no-tskip / nr-intra=0 / nr-inter=0 / no-constrained-intra / strong-intra-smoothing / max-merge=2 / limit-refs=3 / no-limit-modes / me=3 / subme=7 / merange=57 / temporal-mvp / weightp / no-weightb / no-analyze-src-pics / deblock=-2:-2 / sao / no-sao-non-deblock / rd=3 / no-early-skip / rskip / no-fast-intra / no-tskip-fast / no-cu-lossless / no-b-intra / no-splitrd-skip / rdpenalty=0 / psy-rd=2.00 / psy-rdoq=0.00 / no-rd-refine / no-lossless / cbqpoffs=0 / crqpoffs=0 / rc=abr / bitrate=6000 / qcomp=0.60 / qpstep=4 / stats-write=0 / stats-read=1 / cplxblur=20.0 / qblur=0.5 / ipratio=1.40 / pbratio=1.30 / aq-mode=1 / aq-strength=1.00 / cutree / zone-count=0 / no-strict-cbr / qg-size=32 / no-rc-grain / qpmax=69 / qpmin=0 / no-const-vbv / sar=1 / overscan=0 / videoformat=5 / range=0 / colorprim=1 / transfer=1 / colormatrix=1 / chromaloc=0 / display-window=0 / max-cll=0,0 / min-luma=0 / max-luma=1023 / log2-max-poc-lsb=8 / vui-timing-info / vui-hrd-info / slices=1 / no-opt-qp-pps / no-opt-ref-list-length-pps / no-multi-pass-opt-rps / scenecut-bias=0.05 / no-opt-cu-delta-qp / no-aq-motion / no-hdr / no-hdr-opt / no-dhdr10-opt / no-idr-recovery-sei / analysis-reuse-level=5 / scale-factor=0 / refine-intra=0 / refine-inter=0 / refine-mv=0 / no-limit-sao / ctu-info=0 / no-lowpass-dct / refine-mv-type=0 / copy-pic=1 / max-ausize-factor=1.0 / no-dynamic-refine / no-single-sei
Language                                 : English
Default                                  : Yes
Forced                                   : No
Color range                              : Limited
Color primaries                          : BT.709
Transfer characteristics                 : BT.709
Matrix coefficients                      : BT.709

Audio #1
ID                                       : 2
Format                                   : AC-3
Format/Info                              : Audio Coding 3
Codec ID                                 : A_AC3
Duration                                 : 2 h 14 min
Bit rate mode                            : Constant
Bit rate                                 : 192 kb/s
Channel(s)                               : 2 channels
Channel positions                        : Front: L R
Sampling rate                            : 48.0 kHz
Frame rate                               : 31.250 FPS (1536 SPF)
Bit depth                                : 16 bits
Compression mode                         : Lossy
Stream size                              : 185 MiB (3%)
Title                                    : 2.0 @ 192 kbps
Language                                 : Ukrainian
Service kind                             : Complete Main
Default                                  : Yes
Forced                                   : Yes

Audio #2
ID                                       : 3
Format                                   : AC-3
Format/Info                              : Audio Coding 3
Codec ID                                 : A_AC3
Duration                                 : 2 h 14 min
Bit rate mode                            : Constant
Bit rate                                 : 448 kb/s
Channel(s)                               : 6 channels
Channel positions                        : Front: L C R, Side: L R, LFE
Sampling rate                            : 48.0 kHz
Frame rate                               : 31.250 FPS (1536 SPF)
Bit depth                                : 16 bits
Compression mode                         : Lossy
Stream size                              : 432 MiB (7%)
Title                                    : 5.1 @ 448 kbps
Language                                 : English
Service kind                             : Complete Main
Default                                  : No
Forced                                   : No

Text #1
ID                                       : 4
Format                                   : UTF-8
Codec ID                                 : S_TEXT/UTF8
Codec ID/Info                            : UTF-8 Plain Text
Duration                                 : 2 h 12 min
Bit rate                                 : 2 b/s
Count of elements                        : 69
Stream size                              : 2.49 KiB (0%)
Title                                    : Forced
Language                                 : Ukrainian
Default                                  : Yes
Forced                                   : Yes

Text #2
ID                                       : 5
Format                                   : UTF-8
Codec ID                                 : S_TEXT/UTF8
Codec ID/Info                            : UTF-8 Plain Text
Duration                                 : 2 h 7 min
Bit rate                                 : 40 b/s
Count of elements                        : 1382
Stream size                              : 37.4 KiB (0%)
Title                                    : Full
Language                                 : English
Default                                  : No
Forced                                   : No

Text #3
ID                                       : 6
Format                                   : UTF-8
Codec ID                                 : S_TEXT/UTF8
Codec ID/Info                            : UTF-8 Plain Text
Duration                                 : 2 h 8 min
Bit rate                                 : 52 b/s
Count of elements                        : 1836
Stream size                              : 49.5 KiB (0%)
Title                                    : SDH
Language                                 : English
Default                                  : No
Forced                                   : No

Menu
00:00:00.000                             : en:00:00:00.000
00:09:23.646                             : en:00:09:23.646
00:18:31.861                             : en:00:18:31.861
00:28:26.163                             : en:00:28:26.163
00:38:36.981                             : en:00:38:36.981
00:48:19.438                             : en:00:48:19.438
00:59:30.776                             : en:00:59:30.776
01:08:52.795                             : en:01:08:52.795
01:16:58.823                             : en:01:16:58.823
01:26:52.958                             : en:01:26:52.958
01:38:15.306                             : en:01:38:15.306
01:48:40.973                             : en:01:48:40.973
02:04:07.899                             : en:02:04:07.899
02:09:05.655                             : en:02:09:05.655
Скріншоти




Джерело:
Особиста оцінка: 10 - без зайвих вагань рекомендую всім!
ЗАЛИШАЙТЕСЬ ЯКОМОГА ДОВШЕ НА РОЗДАЧІ!
ЗАВАНТАЖИВ САМ - ДАЙ ЗАВАНТАЖИТИ ІНШИМ


 Трекер:    Зареєстрований   

Завантажити / скачати фільм українською



відео для новачків



 Зареєстрований:   2018-08-21 13:55
 Розмір:   6.23 GB 
 Оцінка фільму:   8.8/10 (Голосів: 10)
   
Інші релізи
   Останній портрет / Final Portrait (2017) 1080p Ukr/Eng staf777  9 / 0   6.4 GB   2018-10-17 19:14 
   Останній портрет / Final Portrait (2017) 720p Ukr/Eng staf777  23 / 1   3.35 GB   2018-10-15 12:22 
   Останній портрет / Final Portrait (2017) Ukr/Eng drop_plz  28 / 1   1.54 GB   2018-10-15 10:18 
   Воно / It (2017) 720p Ukr/Eng | Sub Eng 11FrYkT  42 / 4   5.74 GB   2017-12-20 19:46 
   Воно / It (2017) AVC Ukr/Eng | Sub Eng 11FrYkT  62 / 0   2.24 GB   2017-12-20 19:24 
   Воно / It (2017) 1080p Ukr/Eng | Sub Eng Electroz  24 / 0   10.01 GB   2017-12-20 12:56 
   Воно / It (2017) igor911  63 / 0   1.45 GB   2017-12-20 12:13 
   Воно / It (2017) Remux 1080p Ukr/Eng | Sub Eng igor911  8 / 0   26.17 GB   2017-12-20 11:10 
XoxoTynTony 
Новенький


З нами з: 25.09.17
Востаннє: 13.10.18
Повідомлень: 3

2018-08-26 13:46  
Чому завжди клоуни? В американьских фільмах ті хто повинні приносити радість, вселяють жах.
Dogmad 
Частий відвідувач


З нами з: 08.11.17
Востаннє: 21.10.18
Повідомлень: 28

2018-10-08 22:00  
XoxoTynTony написано:
Чому завжди клоуни? В американьских фільмах ті хто повинні приносити радість, вселяють жах.

В тому то і фішка. Той хто дарує сміх і радість дітям, натомість, вбиває їх, заманюючи (по первах) своїх жертв добрим образом.
А фільм крутий 9 з 10, хоч і не страшний. По духу нагадує серіал «Дивні Дива».

Ігор Бобало 
Новенький


З нами з: 25.01.18
Востаннє: 09.10.18
Повідомлень: 1

2018-10-09 23:10  
тільки поправочка: Пеннівайз є лише збірним образом втілень давнього зла, чим являє себе Воно. а так цій істоті притаманний поліморфізм
Ваш часовий пояс: GMT + 2 Години

Нова тема   Відповісти