Жінка-метелик / The Butterfly Tree (2017) Remux 1080p Ukr/Eng | Sub Eng

Нові коментарі

Нова тема   Відповісти
Автор Повідомлення
staf777 
Попереджень: 1
Попереджень: 1 


З нами з: 16.11.16
Востаннє: 15.12.18
Повідомлень: 1919

2018-08-21 07:41  
Жінка-метелик / The Butterfly Tree (2017) Remux 1080p Ukr/Eng | Sub Eng

Жінка-метелик / The Butterfly Tree (2017) Remux 1080p Ukr/Eng | Sub Eng


Жанр: драма
Країна: Австралія



Кінокомпанія: Midwinter Films,Cowlick Entertainment Group,Screen Queensland
Режисер: Присцилла Камерон
Актори: Мелісса Джордж, Івен Леслі, Ед Оксенбульд, Софі Лоу, Лорен Діллон

Сюжет:
Одинокий батько Ал живе разом зі своїм сином-підлітком Фіном. Зовсім недавно до них по сусідству оселилася жінка на ім’я Евелін. Вона є королевою бурлеску і справжньою красунею, яка може змінити будь-яке життя. Коли батько і син розуміють, що вони закохалися в одну й ту же жінку, відкриваються старі рани після смерті матері хлопчика. Завдяки Евелін Фін вчиться прощати інших людей і в той же час відмовляється від сім'ї заради жінки. Син і батько зрозуміють ціну справжньої безкорисливої любові.


Тривалість: 01:36:04
Якість: Remux 1080p
Відео:
кодек:
розмір кадру: 1920x1080
бітрейт: 26,8 Mб/с

Аудіо # 1:
мова: українська
переклад: багатоголосий закадровий
кодек: 2.0
бітрейт: 192 кб/с

Аудіо # 2:
мова: англійська
переклад: оригінал
кодек: -HD MA 5.1
бітрейт: 3072 кб/с

Субтитри:
мова: англійська
тип: програмні (м'які)
формат: *.srt
Info
General
Unique ID : 298141844391876531087326636116205561681 (0xE04C07D40511E346CE59C1E21A1AE751)
Complete name : D:\Фільми в HD\Драма\The Butterfly Tree (2017) Remux 1080p [UKR_ENG] [Hurtom].
Format :
Format version : Version 4 / Version 2
File size : 20.2 GiB
Duration : 1 h 36 min
Overall bit rate mode : Variable
Overall bit rate : 30.2 Mb/s
Movie name : The Butterfly Tree (2017) Remux 1080p [UKR_ENG] [Hurtom]
Encoded date : UTC 2018-08-21 11:40:19
Writing application : v24.0.0 ('Beyond The Pale') 64-bit
Writing library : libebml v1.3.6 + v1.4.9
Cover : Yes
Attachments : cover

Video
ID : 1
Format : AVC
Format/Info : Advanced Video Codec
Format profile : [email protected]
Format settings : CABAC / 4 Ref Frames
Format settings, CABAC : Yes
Format settings, ReFrames : 4 frames
Codec ID : V_MPEG4/ISO/AVC
Duration : 1 h 36 min
Bit rate mode : Variable
Bit rate : 26.8 Mb/s
Maximum bit rate : 38.0 Mb/s
Width : 1 920 pixels
Height : 1 080 pixels
Display aspect ratio : 16:9
Frame rate mode : Constant
Frame rate : 23.976 (24000/1001) FPS
Color space : YUV
Chroma subsampling : 4:2:0
Bit depth : 8 bits
Scan type : Progressive
Bits/(Pixel*Frame) : 0.540
Stream size : 18.0 GiB (89%)
Language : English
Default : Yes
Forced : No

Audio #1
ID : 2
Format : AC-3
Format/Info : Audio Coding 3
Codec ID : A_AC3
Duration : 1 h 36 min
Bit rate mode : Constant
Bit rate : 192 kb/s
Channel(s) : 2 channels
Channel positions : Front: L R
Sampling rate : 48.0 kHz
Frame rate : 31.250 FPS (1536 SPF)
Bit depth : 16 bits
Compression mode : Lossy
Stream size : 132 MiB (1%)
Title : 2.0 @ 192 kbps
Language : Ukrainian
Service kind : Complete Main
Default : Yes
Forced : Yes

Audio #2
ID : 3
Format :
Format/Info : Digital Theater Systems
Format profile : MA / Core
Codec ID : A_DTS
Duration : 1 h 36 min
Bit rate mode : Variable / Constant
Bit rate : 3 072 kb/s / 1 509 kb/s
Channel(s) : 6 channels
Channel positions : Front: L C R, Side: L R, LFE
Sampling rate : 48.0 kHz
Frame rate : 93.750 FPS (512 SPF)
Bit depth : 24 bits
Compression mode : Lossless / Lossy
Stream size : 2.09 GiB (10%)
Title : Original
Language : English
Default : No
Forced : No

Text
ID : 4
Format : UTF-8
Codec ID : S_TEXT/UTF8
Codec ID/Info : UTF-8 Plain Text
Duration : 1 h 25 min
Bit rate : 27 b/s
Count of elements : 689
Stream size : 16.9 KiB (0%)
Title : Full
Language : English
Default : No
Forced : No

Menu
00:00:00.000 : en:00:00:00.000
00:08:08.655 : en:00:08:08.655
00:17:10.154 : en:00:17:10.154
00:27:10.170 : en:00:27:10.170
00:36:00.200 : en:00:36:00.200
00:47:40.107 : en:00:47:40.107
00:57:01.418 : en:00:57:01.418
01:05:22.836 : en:01:05:22.836
01:16:23.370 : en:01:16:23.370
01:23:32.174 : en:01:23:32.174
Скріншоти




Подяка пану AngryBirdsUA за доріжку та пану Hanway за синхронізацію.
Джерело: &
Особиста оцінка: 0 - не дивився


Золотий реліз (завантажене не впливає на рейтинг)
 Трекер:    Зареєстрований   

Завантажити / скачати фільм українською



відео для новачків



 Зареєстрований:   2018-08-21 14:51
 Розмір:   20.24 GB 
 Оцінка фільму:   7/10 (Голосів: 3)
   
Інші релізи
bot 
робот


З нами з: 30.09.07
Востаннє: 26.05.05
Повідомлень: 20348

2018-08-21 14:51  
Тему перенесено з Анонси релізів до форуму Фільми в HD


staf777

Ваш часовий пояс: GMT + 2 Години

Нова тема   Відповісти