Соляріс / Solaris (2002) 720p Ukr/Eng | Sub Eng

Нові коментарі

Нова тема   Відповісти
Автор Повідомлення
Anonymous 







2018-08-21 05:28  
Соляріс / Solaris (2002) 720p Ukr/Eng | Sub Eng

Соляріс / Solaris (2002) 720p Ukr/Eng | Sub Eng


Жанр: драма, детектив, мелодрама, фантастика
Країна: США



Кінокомпанія: Twentieth Century Fox Film Corporation, Lightstorm Entertainment
Режисер: Стівен Содерберг / Steven Soderbergh
Актори: Джордж Клуні / George Clooney, Наташа МакЕлхон / Natascha McElhone, Віола Девіс / Viola Davis, Джеремі Девіс / Jeremy Davies, Ульріх Тукур / Ulrich Tukur, Джон Чо / John Cho, Морган Раслер / Morgan Rusler, Шейн Скелтон / Shane Skelton, Донна Кімбелл / Donna Kimball, Майкл Енсін / Michael Ensign, Елпідія Каррілло / Elpidia Carrillo, Кент Фолкон / Kent Faulcon, Лорен Кон / Lauren Cohn, Тоні Клемонс / Tony Clemons

Сюжет:
На космічну станцію, яка рухається по орбіті загадкової планети Соляріс, прибуває психолог Кріс Кельвін. Його мета - зрозуміти, що відбувається з працюючими там вченими. Кріс виявляє, що керівник експедиції і його старий друг загинули при таємничих обставинах. А незабаром і сам стикається з силою, що стоїть поза гранню людського розуміння...


Тривалість: 01:38:43
Якість: 720p
Відео:
кодек:
розмір кадру: 1280х546
бітрейт: 5 138 кб/с

Аудіо # 1:
мова: українська
переклад: багатоголосий закадровий
кодек: 2.0
бітрейт: 192 кб/с

Аудіо # 2:
мова: англійська
переклад: оригінал
кодек: 5.1
бітрейт: 448 кб/с

Субтитри:
мова: англійська
тип: програмні (м'які)
формат: *.srt
Info
General
Unique ID : 219519017517719434765176409371148087300 (0xA525D32DF4C1F988A436469E0668F004)
Format :
Format version : Version 4 / Version 2
File size : 4.07 GiB
Duration : 1 h 38 min
Overall bit rate : 5 896 kb/s
Encoded date : UTC 2018-08-21 02:24:27
Writing application : v6.1.0 ('Old Devil') built on Mar 4 2013 09:10:42
Writing library : libebml v1.3.0 + v1.4.0

Video
ID : 1
Format : AVC
Format/Info : Advanced Video Codec
Format profile : [email protected]
Format settings : CABAC / 9 Ref Frames
Format settings, CABAC : Yes
Format settings, ReFrames : 9 frames
Codec ID : V_MPEG4/ISO/AVC
Duration : 1 h 38 min
Bit rate : 5 138 kb/s
Width : 1 280 pixels
Height : 546 pixels
Display aspect ratio : 2.35:1
Frame rate mode : Constant
Frame rate : 23.976 (24000/1001) FPS
Color space : YUV
Chroma subsampling : 4:2:0
Bit depth : 8 bits
Scan type : Progressive
Bits/(Pixel*Frame) : 0.307
Stream size : 3.54 GiB (87%)
Writing library : core 146 r2538 121396c
Encoding settings : cabac=1 / ref=9 / deblock=1:-3:-2 / analyse=0x3:0x113 / me=umh / subme=11 / psy=1 / psy_rd=1.00:0.15 / mixed_ref=1 / me_range=32 / chroma_me=1 / trellis=2 / 8x8dct=1 / cqm=0 / deadzone=21,11 / fast_pskip=0 / chroma_qp_offset=-3 / threads=6 / lookahead_threads=1 / sliced_threads=0 / nr=0 / decimate=1 / interlaced=0 / bluray_compat=0 / constrained_intra=0 / bframes=13 / b_pyramid=2 / b_adapt=2 / b_bias=0 / direct=1 / weightb=1 / open_gop=0 / weightp=2 / keyint=230 / keyint_min=23 / scenecut=40 / intra_refresh=0 / rc_lookahead=40 / rc=crf / mbtree=0 / crf=18.8 / qcomp=0.60 / qpmin=0 / qpmax=69 / qpstep=4 / vbv_maxrate=62500 / vbv_bufsize=78125 / crf_max=0.0 / nal_hrd=none / filler=0 / ip_ratio=1.40 / pb_ratio=1.30 / aq=1:1.00
Language : English
Default : Yes
Forced : No
Statistics Tags Issue : v8.2.0 ('World of Adventure') 64bit 2017-05-29 16:33:03 / v6.1.0 ('Old Devil') built on Mar 4 2013 09:10:42 2018-08-21 02:24:27
FromStats_BitRate : 5253357
FromStats_Duration : 01:38:43.001000000
FromStats_FrameCount : 142010
FromStats_StreamSize : 3889455329

Audio #1
ID : 2
Format : AC-3
Format/Info : Audio Coding 3
Codec ID : A_AC3
Duration : 1 h 38 min
Bit rate mode : Constant
Bit rate : 192 kb/s
Channel(s) : 2 channels
Channel positions : Front: L R
Sampling rate : 48.0 kHz
Frame rate : 31.250 FPS (1536 SPF)
Bit depth : 16 bits
Compression mode : Lossy
Stream size : 136 MiB (3%)
Title : UKR (2+2)
Language : Ukrainian
Service kind : Complete Main
Default : Yes
Forced : Yes

Audio #2
ID : 3
Format : AC-3
Format/Info : Audio Coding 3
Codec ID : A_AC3
Duration : 1 h 38 min
Bit rate mode : Constant
Bit rate : 448 kb/s
Channel(s) : 6 channels
Channel positions : Front: L C R, Side: L R, LFE
Sampling rate : 48.0 kHz
Frame rate : 31.250 FPS (1536 SPF)
Bit depth : 16 bits
Compression mode : Lossy
Stream size : 316 MiB (8%)
Title : ENG
Language : English
Service kind : Complete Main
Default : No
Forced : No
Statistics Tags Issue : v8.2.0 ('World of Adventure') 64bit 2017-05-29 16:33:03 / v6.1.0 ('Old Devil') built on Mar 4 2013 09:10:42 2018-08-21 02:24:27
FromStats_BitRate : 448000
FromStats_Duration : 01:38:43.040000000
FromStats_FrameCount : 185095
FromStats_StreamSize : 331690240

Text
ID : 4
Format : UTF-8
Codec ID : S_TEXT/UTF8
Codec ID/Info : UTF-8 Plain Text
Title : ENG
Language : English
Default : No
Forced : No
Statistics Tags Issue : v8.2.0 ('World of Adventure') 64bit 2017-05-29 16:33:03 / v6.1.0 ('Old Devil') built on Mar 4 2013 09:10:42 2018-08-21 02:24:27
FromStats_BitRate : 37
FromStats_Duration : 01:37:13.628000000
FromStats_FrameCount : 937
FromStats_StreamSize : 27150

Menu
00:00:00.000 : en:Chapter 01
00:15:03.777 : en:Chapter 02
00:28:53.606 : en:Chapter 03
00:39:58.187 : en:Chapter 04
00:51:28.126 : en:Chapter 05
01:01:59.048 : en:Chapter 06
01:11:21.860 : en:Chapter 07
01:18:08.809 : en:Chapter 08
01:23:53.361 : en:Chapter 09
01:32:35.466 : en:Chapter 10
01:38:41.916 : en:Chapter 11
Скріншоти







Звукозапис з ТБ: karvai0
Зведення звуку: taraskill1, karvai0
Виготовлення постеру: Vladdrako17
Особиста подяка пану denixx за надану матеріальну допомогу на підтримку цього і майбутніх релізів.
Джерело:


Срібний реліз (на рейтинг впливає 50% завантаженого)
 Трекер:    Зареєстрований   

Завантажити / скачати фільм українською



відео для новачків



 Зареєстрований:   2018-08-21 05:28
 Розмір:   4.07 GB 
 Оцінка фільму:   9.8/10 (Голосів: 5)
   
Інші релізи
   Соляріс / Solaris (2002) 1080p Ukr/Eng | Sub Eng IronBee  2 / 0   10.84 GB   2017-07-14 21:31 
   Соляріс / Solaris (2002) Ukr/Eng | Sub Eng taraskill1  6 / 0   1.69 GB   2017-07-12 11:02 
mixafree 
Новенький


З нами з: 26.11.15
Востаннє: 23.04.19
Повідомлень: 9

2018-11-28 22:41  
Дивився цей фільм раз сім. І ще раз подивлюся. Навіть пори те, що Ґордон оказався... жінкою ))) Хоча у цьому щось є: жінка, яка є символом початку життя, намагається знищити планету...
Дуже атмосферне кіно.

MykhayloМ 
Свій


З нами з: 05.01.13
Востаннє: 23.04.19
Повідомлень: 137

2019-03-07 05:11  
"Соляріс" Тарковського кращий. Більш глибокий. Тим не менше тримаю в своїй колекції обидва фільми.
Ваш часовий пояс: GMT + 2 Години

Нова тема   Відповісти