Розбірки у маленькому Токіо / Showdown in Little Tokyo (1991) 1080p 2xUkr/Eng| Sub Eng

Нові коментарі

Нова тема   Відповісти
Автор Повідомлення
Anonymous 







2018-08-20 21:31  
Розбірки у маленькому Токіо / Showdown in Little Tokyo (1991) 1080p 2xUkr/Eng| Sub Eng

Розбірки у маленькому Токіо / Showdown in Little Tokyo (1991) 1080p 2xUkr/Eng| Sub Eng


Жанр: бойовик, комедія, кримінал
Країна: США



Кінокомпанія: Warner Bros. Pictures
Режисер: Марк Л. Лестер (Mark L. Lester)
Актори: Дольф Лундґрен (Dolph Lundgren), Брендон Лі (Brandon Lee), Кері-Гіроюкі Таґава (Cary-Hiroyuki Tagawa), Тіа Каррере (Tia Carrere), Тосіро Обата (Toshiro Obata) та інші

Сюжет:
Поліцейський з Лос-Анджелеса, який виріс у Японії та вивчив там бойові мистецтва, зустрічає у районі "Маленький Токіо" вбивцю своїх батьків, який налагоджує в Америці торгівлю новим видом сильного наркотику. Разом зі своїм новим партнером він вступає у бій із якудзою.


Тривалість: 01:18:21
Якість: 1080p
Відео:
кодек:
розмір кадру: 1920х1080
бітрейт: 14 Мб/с

Аудіо # 1:
мова: українська
переклад: багатоголосий закадровий ,
кодек: 2.0
бітрейт: 192 кб/с

Аудіо # 2:
мова: українська
переклад: багатоголосий закадровий
кодек: 2.0
бітрейт: 192 кб/с

Аудіо # 3:
мова: англійська
переклад: оригінал
кодек: 2.0
бітрейт: 1509 кб/с

Субтитри:
мова: англійська
тип: програмні (м'які)
формат: *.srt
Info
General
Unique ID : 199275332837343593711311542984770997628 (0x95EB0877345E5822A5839D7E81E64D7C)
Complete name : H:\Toloka\2018\Showdown in Little Tokyo (1991) 1080p.
Format :
Format version : Version 4 / Version 2
File size : 8.55 GiB
Duration : 1 h 18 min
Overall bit rate : 15.6 Mb/s
Encoded date : UTC 2018-08-20 18:22:35
Writing application : v6.1.0 ('Old Devil') built on Mar 4 2013 09:10:42
Writing library : libebml v1.3.0 + v1.4.0

Video
ID : 1
Format : AVC
Format/Info : Advanced Video Codec
Format profile : [email protected]
Format settings : CABAC / 3 Ref Frames
Format settings, CABAC : Yes
Format settings, ReFrames : 3 frames
Codec ID : V_MPEG4/ISO/AVC
Duration : 1 h 18 min
Bit rate : 14.0 Mb/s
Width : 1 920 pixels
Height : 1 080 pixels
Display aspect ratio : 16:9
Frame rate mode : Constant
Frame rate : 23.976 FPS
Color space : YUV
Chroma subsampling : 4:2:0
Bit depth : 8 bits
Scan type : Progressive
Bits/(Pixel*Frame) : 0.282
Stream size : 7.34 GiB (86%)
Writing library : core 146 r2538 121396c
Encoding settings : cabac=1 / ref=4 / deblock=1:-1:-1 / analyse=0x3:0x113 / me=umh / subme=11 / psy=1 / psy_rd=1.15:0.25 / mixed_ref=1 / me_range=24 / chroma_me=1 / trellis=2 / 8x8dct=1 / cqm=0 / deadzone=21,11 / fast_pskip=0 / chroma_qp_offset=-4 / threads=12 / lookahead_threads=3 / sliced_threads=0 / nr=0 / decimate=0 / interlaced=0 / bluray_compat=0 / constrained_intra=0 / bframes=12 / b_pyramid=1 / b_adapt=2 / b_bias=0 / direct=3 / weightb=1 / open_gop=0 / weightp=2 / keyint=250 / keyint_min=23 / scenecut=40 / intra_refresh=0 / rc_lookahead=50 / rc=2pass / mbtree=1 / bitrate=14000 / ratetol=1.0 / qcomp=0.60 / qpmin=0 / qpmax=69 / qpstep=4 / cplxblur=20.0 / qblur=0.5 / vbv_maxrate=14000 / vbv_bufsize=14000 / nal_hrd=none / filler=0 / ip_ratio=1.40 / aq=1:1.00
Language : English
Default : Yes
Forced : No
Statistics Tags Issue : v8.1.0 ('Psychedelic Postcard') 32bit 2015-08-05 18:17:08 / v6.1.0 ('Old Devil') built on Mar 4 2013 09:10:42 2018-08-20 18:22:35
FromStats_BitRate : 13726766
FromStats_Duration : 01:18:21.739000000
FromStats_FrameCount : 112729
FromStats_StreamSize : 8067459354

Audio #1
ID : 2
Format : AC-3
Format/Info : Audio Coding 3
Codec ID : A_AC3
Duration : 1 h 18 min
Bit rate mode : Constant
Bit rate : 192 kb/s
Channel(s) : 2 channels
Channel positions : Front: L R
Sampling rate : 48.0 kHz
Frame rate : 31.250 FPS (1536 SPF)
Bit depth : 16 bits
Compression mode : Lossy
Stream size : 108 MiB (1%)
Title : UKR (ICTV, Новий)
Language : Ukrainian
Service kind : Complete Main
Default : Yes
Forced : Yes
Statistics Tags Issue : v8.1.0 ('Psychedelic Postcard') 32bit 2015-08-05 18:17:08 / v6.1.0 ('Old Devil') built on Mar 4 2013 09:10:42 2018-08-20 18:22:35
FromStats_BitRate : 192000
FromStats_Duration : 01:18:20.768000000
FromStats_FrameCount : 146899
FromStats_StreamSize : 112818432

Audio #2
ID : 3
Format : AC-3
Format/Info : Audio Coding 3
Codec ID : A_AC3
Duration : 1 h 18 min
Bit rate mode : Constant
Bit rate : 192 kb/s
Channel(s) : 2 channels
Channel positions : Front: L R
Sampling rate : 48.0 kHz
Frame rate : 31.250 FPS (1536 SPF)
Bit depth : 16 bits
Compression mode : Lossy
Stream size : 108 MiB (1%)
Title : UKR (Inter)
Language : Ukrainian
Service kind : Complete Main
Default : No
Forced : No
Statistics Tags Issue : v8.1.0 ('Psychedelic Postcard') 32bit 2015-08-05 18:17:08 / v6.1.0 ('Old Devil') built on Mar 4 2013 09:10:42 2018-08-20 18:22:35
FromStats_BitRate : 192000
FromStats_Duration : 01:18:20.768000000
FromStats_FrameCount : 146899
FromStats_StreamSize : 112818432

Audio #3
ID : 4
Format :
Format/Info : Digital Theater Systems
Codec ID : A_DTS
Duration : 1 h 18 min
Bit rate mode : Constant
Bit rate : 1 509 kb/s
Channel(s) : 2 channels
Channel positions : Front: L R
Sampling rate : 48.0 kHz
Frame rate : 93.750 FPS (512 SPF)
Bit depth : 24 bits
Compression mode : Lossy
Stream size : 846 MiB (10%)
Language : English
Default : No
Forced : No
Statistics Tags Issue : v8.1.0 ('Psychedelic Postcard') 32bit 2015-08-05 18:17:08 / v6.1.0 ('Old Devil') built on Mar 4 2013 09:10:42 2018-08-20 18:22:35
FromStats_BitRate : 1509000
FromStats_Duration : 01:18:20.768000000
FromStats_FrameCount : 440697
FromStats_StreamSize : 886682364

Text
ID : 5
Format : UTF-8
Codec ID : S_TEXT/UTF8
Codec ID/Info : UTF-8 Plain Text
Language : English
Default : No
Forced : No
Statistics Tags Issue : v8.1.0 ('Psychedelic Postcard') 32bit 2015-08-05 18:17:08 / v6.1.0 ('Old Devil') built on Mar 4 2013 09:10:42 2018-08-20 18:22:35
FromStats_BitRate : 1
FromStats_Duration : 00:58:48.233000000
FromStats_FrameCount : 17
FromStats_StreamSize : 527

Menu
00:00:00.000 : en:Chapter 01
00:02:32.986 : en:Chapter 02
00:05:41.090 : en:Chapter 03
00:09:56.721 : en:Chapter 04
00:12:54.190 : en:Chapter 05
00:17:36.221 : en:Chapter 06
00:20:15.255 : en:Chapter 07
00:24:49.112 : en:Chapter 08
00:30:00.590 : en:Chapter 09
00:33:36.514 : en:Chapter 10
00:39:01.464 : en:Chapter 11
00:41:37.870 : en:Chapter 12
00:48:23.191 : en:Chapter 13
00:50:04.710 : en:Chapter 14
00:53:21.865 : en:Chapter 15
00:56:44.025 : en:Chapter 16
00:59:00.954 : en:Chapter 17
01:02:26.033 : en:Chapter 18
01:06:58.597 : en:Chapter 19
01:09:47.808 : en:Chapter 20
01:11:10.933 : en:Chapter 21
01:15:19.806 : en:Chapter 22
01:18:19.903 : en:Chapter 23
Скріншоти









За українські доріжки подяка п.: robotron005, olgaya, Sando7, за постер - п.gig_Panas
Особиста подяка пану denixx за надану матеріальну допомогу на підтримку цього і майбутніх релізів.

Джерело:


Срібний реліз (на рейтинг впливає 50% завантаженого)
 Трекер:    Зареєстрований   

Завантажити / скачати фільм українською



відео для новачків



 Зареєстрований:   2018-08-20 21:31
 Розмір:   8.55 GB 
 Оцінка фільму:   9.5/10 (Голосів: 6)
   
Ваш часовий пояс: GMT + 2 Години

Нова тема   Відповісти