Мішель Вальян: Жага швидкості / Michel Vaillant (2003) AVC 2xUkr/Fra| Sub Eng

Нові коментарі

Нова тема   Відповісти
Автор Повідомлення
staf777 
Відео Гуртом - підтримка та поширення
Відео Гуртом - підтримка та поширення


З нами з: 16.11.16
Востаннє: 23.04.19
Повідомлень: 2285

2018-08-20 09:25  
Мішель Вальян: Жага швидкості / Michel Vaillant (2003) AVC 2xUkr/Fra| Sub Eng

Мішель Вальян: Жага швидкості / Michel Vaillant (2003) AVC 2xUkr/Fra| Sub Eng


Жанр: екшен, спорт
Країна: Франція



Кінокомпанія: Europa Corp., TF1 Films Productions, The Prod
Режисер: Луї-Паскаль Кувелер
Актори: Сагамор Стевенен, Пітер Янгблад Хіллс, Жан-П'єр Кассель, Дайан Крюгер, Беатріс Аженен, Ліза Барбусіа, Філіп Бас, Філіп Лелуш, Жан Моран, Франсуа Леванталь

Сюжет:
Мішель Вальян – пілот-віртуоз, незаперечний авторитет у світі автоспорту. Постійні успіхи очолюваної ним стайні викликають не тільки захоплення, але й цілком зрозумілу заздрість конкурентів. Красуня Рут Вонґ, донька знаменитого Лідера, хоче помститися за смерть батька і докладає максимум зусиль, щоб знищити Вальянів. А тут наближається гонка “24 години в Ле Мані”...


Тривалість: 01:43:28
Якість: AVC
Відео:
кодек:
розмір кадру: 1104x468
бітрейт: 4450 кб/с

Аудіо # 1:
мова: українська
переклад: двоголосий закадровий
кодек: 5.1
бітрейт: 448 кб/с

Аудіо # 2:
мова: українська
переклад: багатоголосий закадровий
кодек: 2.0
бітрейт: 192 кб/с

Аудіо # 3:
мова: французька
переклад: оригінал
кодек: 5.1
бітрейт: 448 кб/с

Субтитри:
мова: англійська
тип: програмні (м'які)
формат: *.srt
Скріншоти




MI
General
Unique ID : 323139801678037023166508042634779971231 (0xF31A76476F4E8B82A03BCC9229084E9F)
Complete name : H:\AVC\Michel Vaillant (2003) AVC [2UA][FRA][Hurtom].
Format :
Format version : Version 4 / Version 2
File size : 4.00 GiB
Duration : 1 h 43 min
Overall bit rate : 5 540 kb/s
Movie name : Michel Vaillant (2003) AVC [2UA][FRA][Hurtom]
Encoded date : UTC 2018-08-20 06:05:26
Writing application : v24.0.0 ('Beyond The Pale') 64-bit
Writing library : libebml v1.3.6 + v1.4.9
Cover : Yes
Attachments : cover.jpg

Video
ID : 1
Format : AVC
Format/Info : Advanced Video Codec
Format profile : [email protected]
Format settings : CABAC / 11 Ref Frames
Format settings, CABAC : Yes
Format settings, ReFrames : 11 frames
Codec ID : V_MPEG4/ISO/AVC
Duration : 1 h 43 min
Bit rate : 4 450 kb/s
Width : 1 104 pixels
Height : 468 pixels
Display aspect ratio : 2.35:1
Frame rate mode : Constant
Frame rate : 23.976 (24000/1001) FPS
Color space : YUV
Chroma subsampling : 4:2:0
Bit depth : 8 bits
Scan type : Progressive
Bits/(Pixel*Frame) : 0.359
Stream size : 3.22 GiB (80%)
Title : Michel Vaillant 2003 AVC
Writing library : core 135 r2345 f0c1c53
Encoding settings : cabac=1 / ref=11 / deblock=1:-3:-2 / analyse=0x3:0x133 / me=tesa / subme=11 / psy=1 / psy_rd=1.10:0.04 / mixed_ref=1 / me_range=32 / chroma_me=1 / trellis=2 / 8x8dct=1 / cqm=0 / deadzone=21,11 / fast_pskip=0 / chroma_qp_offset=-3 / threads=12 / lookahead_threads=3 / sliced_threads=0 / nr=0 / decimate=1 / interlaced=0 / bluray_compat=0 / constrained_intra=0 / bframes=13 / b_pyramid=2 / b_adapt=2 / b_bias=0 / direct=3 / weightb=1 / open_gop=0 / weightp=2 / keyint=250 / keyint_min=23 / scenecut=40 / intra_refresh=0 / rc_lookahead=0 / rc=2pass / mbtree=0 / bitrate=4450 / ratetol=1.0 / qcomp=0.80 / qpmin=0 / qpmax=69 / qpstep=4 / cplxblur=20.0 / qblur=0.5 / vbv_maxrate=50000 / vbv_bufsize=62500 / nal_hrd=none / ip_ratio=1.17 / pb_ratio=1.23 / aq=2:0.90
Language : English
Default : Yes
Forced : No
Color range : Limited
Matrix coefficients : BT.709

Audio #1
ID : 2
Format : AC-3
Format/Info : Audio Coding 3
Codec ID : A_AC3
Duration : 1 h 43 min
Bit rate mode : Constant
Bit rate : 448 kb/s
Channel(s) : 6 channels
Channel positions : Front: L C R, Side: L R, LFE
Sampling rate : 48.0 kHz
Frame rate : 31.250 FPS (1536 SPF)
Bit depth : 16 bits
Compression mode : Lossy
Stream size : 331 MiB (8%)
Title : UA-MVO-Новий канал]
Language : Ukrainian
Service kind : Complete Main
Default : Yes
Forced : Yes

Audio #2
ID : 3
Format : AC-3
Format/Info : Audio Coding 3
Codec ID : A_AC3
Duration : 1 h 43 min
Bit rate mode : Constant
Bit rate : 192 kb/s
Channel(s) : 2 channels
Channel positions : Front: L R
Sampling rate : 48.0 kHz
Frame rate : 31.250 FPS (1536 SPF)
Bit depth : 16 bits
Compression mode : Lossy
Stream size : 142 MiB (3%)
Title : [UA-MVO-К1]
Language : Ukrainian
Service kind : Complete Main
Default : No
Forced : No

Audio #3
ID : 4
Format : AC-3
Format/Info : Audio Coding 3
Codec ID : A_AC3
Duration : 1 h 43 min
Bit rate mode : Constant
Bit rate : 448 kb/s
Channel(s) : 6 channels
Channel positions : Front: L C R, Side: L R, LFE
Sampling rate : 48.0 kHz
Frame rate : 31.250 FPS (1536 SPF)
Bit depth : 16 bits
Compression mode : Lossy
Stream size : 332 MiB (8%)
Title : 48 kHz, Audio, 5.1, 448 kbps, Original
Language : French
Service kind : Complete Main
Default : No
Forced : No

Text
ID : 5
Format : UTF-8
Codec ID : S_TEXT/UTF8
Codec ID/Info : UTF-8 Plain Text
Duration : 1 h 35 min
Bit rate : 32 b/s
Count of elements : 932
Stream size : 22.9 KiB (0%)
Title : SRT, Full
Language : English
Default : No
Forced : No

Menu
00:00:00.000 : en:00:00:00.000
00:04:25.890 : en:00:04:25.890
00:16:20.771 : en:00:16:20.771
00:24:57.370 : en:00:24:57.370
00:33:15.326 : en:00:33:15.326
00:43:12.047 : en:00:43:12.047
00:48:50.677 : en:00:48:50.677
00:56:27.383 : en:00:56:27.383
01:05:13.659 : en:01:05:13.659
01:16:21.701 : en:01:16:21.701
01:24:55.548 : en:01:24:55.548
01:30:07.360 : en:01:30:07.360
Подяка за звук з нового каналу пану _Slavik_ за доріжку K1 пану lenina4040

Джерело:
Особиста оцінка: 0 - не дивився


Срібний реліз (на рейтинг впливає 50% завантаженого)
 Трекер:    Зареєстрований   

Завантажити / скачати фільм українською



відео для новачків



 Зареєстрований:   2018-08-20 09:25
 Розмір:   4 GB 
 Оцінка фільму:   7.8/10 (Голосів: 8)
   
Інші релізи
Leopold1987 
Частий відвідувач


З нами з: 28.10.11
Востаннє: 21.04.19
Повідомлень: 33

2018-08-25 19:56  
Дякую. Давно хотів подивитись українською. Один з небагатьох адекватних фільмів про автоспорт .
Ваш часовий пояс: GMT + 2 Години

Нова тема   Відповісти