Самотній чоловік / A Single Man (2009) 1080p Ukr/Eng | Sub Eng

Нові коментарі

Нова тема   Відповісти
Автор Повідомлення
Anonymous 







2018-08-20 05:44  
Самотній чоловік / A Single Man (2009) 1080p Ukr/Eng | Sub Eng

Самотній чоловік / A Single Man (2009) 1080p Ukr/Eng | Sub Eng


Жанр: драма, ЛГБТ
Країна: США



Кінокомпанія: Fade to Black Productions, Depth of Field, Artina Films
Режисер: Том Форд / Tom Ford
Актори: Колін Ферт / Colin Firth, Джуліанна Мур / Julianne Moore, Ніколас Голт / Nicholas Hoult, Меттью Гуд / Matthew Goode, Джон Кортахарена / Jon Kortajarena, Полетт Ламорі / Paulette Lamori, Райан Сімпкінс / Ryan Simpkins, Джинджер Ґудвін / Ginnifer Goodwin, Тедді Сірс / Teddy Sears, Пол Батлер / Paul Butler, Аарон Сандерс / Aaron Sanders, Алін Bебер / Aline Weber, Кері Лінн Пратт / Keri Lynn Pratt, Дженна Гевіген / Jenna Gavigan, Алісія Керр / Alicia Carr

Сюжет:
Лос-Анджелес, 1962 рік. Професор англійської літератури Джордж відводить собі один день для відповіді на питання, чи є у нього майбутнє після раптової смерті коханця Джима, з яким він прожив 16 років. В світі, що розсипається на частини, Джордж шукає втіхи у давньої подруги Шарлотти, намагається зачепитися за красу навколишньої реальності, щоб заново відкрити сенс життя.


Рейтинг MPAA: R - особам до 17 років обов'язкова присутність батьків або дорослого опікуна
Вікова категорія: 16+

Тривалість: 01:40:21
Якість: 1080p
Відео:
кодек:
розмір кадру: 1920х800
бітрейт: 16,4 Мб/с

Аудіо # 1:
мова: українська
переклад: багатоголосий закадровий
кодек: 2.0
бітрейт: 192 кб/с

Аудіо # 2:
мова: англійська
переклад: оригінал
кодек: 5.1
бітрейт: 1509 кб/с

Аудіо # 3:
мова: англійська
переклад: коментарі Тома Форда
кодек: АС3 2.0
бітрейт: 192 кб/с

Субтитри 1-2:
мова: англійська (повні, SDH)
тип: програмні (м'які)
формат: *.srt
Info
General
Unique ID : 229194418642383250242743899382680817648 (0xAC6D3D48FD45A47B8312353DE91A8FF0)
Format :
Format version : Version 4 / Version 2
File size : 13.1 GiB
Duration : 1 h 40 min
Overall bit rate : 18.7 Mb/s
Encoded date : UTC 2018-08-20 03:34:16
Writing application : v6.1.0 ('Old Devil') built on Mar 4 2013 09:10:42
Writing library : libebml v1.3.0 + v1.4.0

Video
ID : 1
Format : AVC
Format/Info : Advanced Video Codec
Format profile : [email protected]
Format settings : CABAC / 5 Ref Frames
Format settings, CABAC : Yes
Format settings, ReFrames : 5 frames
Codec ID : V_MPEG4/ISO/AVC
Duration : 1 h 40 min
Bit rate : 16.4 Mb/s
Width : 1 920 pixels
Height : 800 pixels
Display aspect ratio : 2.40:1
Frame rate mode : Constant
Frame rate : 23.976 (24000/1001) FPS
Color space : YUV
Chroma subsampling : 4:2:0
Bit depth : 8 bits
Scan type : Progressive
Bits/(Pixel*Frame) : 0.446
Stream size : 11.5 GiB (88%)
Writing library : core 148 r2665kMod a01e339
Encoding settings : cabac=1 / ref=5 / deblock=1:-3:-3 / analyse=0x3:0x133 / me=umh / subme=10 / psy=1 / fade_compensate=0.00 / psy_rd=1.05:0.00 / mixed_ref=1 / me_range=24 / chroma_me=1 / trellis=2 / 8x8dct=1 / cqm=0 / deadzone=21,11 / fast_pskip=0 / chroma_qp_offset=-2 / threads=12 / lookahead_threads=3 / sliced_threads=0 / nr=0 / decimate=0 / interlaced=0 / bluray_compat=0 / constrained_intra=0 / fgo=0 / bframes=11 / b_pyramid=2 / b_adapt=2 / b_bias=0 / direct=3 / weightb=1 / open_gop=0 / weightp=2 / keyint=250 / keyint_min=23 / scenecut=40 / intra_refresh=0 / rc_lookahead=60 / rc=crf / mbtree=0 / crf=19.0000 / qcomp=0.60 / qpmin=0 / qpmax=69 / qpstep=4 / vbv_maxrate=62500 / vbv_bufsize=78125 / crf_max=0.0 / nal_hrd=none / filler=0 / ip_ratio=1.30 / pb_ratio=1.20 / aq=3:0.75
Language : English
Default : Yes
Forced : No
Color range : Limited
Matrix coefficients : BT.709

Audio #1
ID : 2
Format : AC-3
Format/Info : Audio Coding 3
Codec ID : A_AC3
Duration : 1 h 40 min
Bit rate mode : Constant
Bit rate : 192 kb/s
Channel(s) : 2 channels
Channel positions : Front: L R
Sampling rate : 48.0 kHz
Frame rate : 31.250 FPS (1536 SPF)
Bit depth : 16 bits
Compression mode : Lossy
Stream size : 138 MiB (1%)
Title : UKR (ТРК "Україна")
Language : Ukrainian
Service kind : Complete Main
Default : No
Forced : No

Audio #2
ID : 3
Format :
Format/Info : Digital Theater Systems
Codec ID : A_DTS
Duration : 1 h 40 min
Bit rate mode : Constant
Bit rate : 1 509 kb/s
Channel(s) : 6 channels
Channel positions : Front: L C R, Side: L R, LFE
Sampling rate : 48.0 kHz
Frame rate : 93.750 FPS (512 SPF)
Bit depth : 24 bits
Compression mode : Lossy
Stream size : 1.06 GiB (8%)
Language : English
Default : No
Forced : No

Audio #3
ID : 4
Format : AC-3
Format/Info : Audio Coding 3
Codec ID : A_AC3
Duration : 1 h 40 min
Bit rate mode : Constant
Bit rate : 192 kb/s
Channel(s) : 2 channels
Channel positions : Front: L R
Sampling rate : 48.0 kHz
Frame rate : 31.250 FPS (1536 SPF)
Bit depth : 16 bits
Compression mode : Lossy
Stream size : 138 MiB (1%)
Title : Commentary by Tom Ford
Language : English
Service kind : Complete Main
Default : No
Forced : No

Text #1
ID : 5
Format : UTF-8
Codec ID : S_TEXT/UTF8
Codec ID/Info : UTF-8 Plain Text
Language : English
Default : No
Forced : No

Text #2
ID : 6
Format : UTF-8
Codec ID : S_TEXT/UTF8
Codec ID/Info : UTF-8 Plain Text
Title : SDH
Language : English
Default : No
Forced : No

Menu
00:00:00.000 : :00:00:00.000
00:07:40.168 : :00:07:40.168
00:14:39.462 : :00:14:39.462
00:16:50.259 : :00:16:50.259
00:21:01.218 : :00:21:01.218
00:29:40.737 : :00:29:40.737
00:35:45.060 : :00:35:45.060
00:40:31.095 : :00:40:31.095
00:47:58.000 : :00:47:58.000
00:50:51.966 : :00:50:51.966
00:55:41.171 : :00:55:41.171
01:03:29.180 : :01:03:29.180
01:09:17.362 : :01:09:17.362
01:18:28.203 : :01:18:28.203
01:21:21.668 : :01:21:21.668
01:24:38.115 : :01:24:38.115
Скріншоти









За українську доріжку подяка п.: MAKAPOHIK, karvai0
Особиста подяка пану denixx за надану матеріальну допомогу на підтримку цього і майбутніх релізів.
Джерело:


 Трекер:    Зареєстрований   

Завантажити / скачати фільм українською



відео для новачків



 Зареєстрований:   2018-08-20 05:44
 Розмір:   13.12 GB 
 Оцінка фільму:   7.8/10 (Голосів: 4)
   
Інші релізи
   Самотній чоловік / A Single Man (2009) Ukr | Sub Eng karvai0  5 / 0   1.45 GB   2012-02-24 11:41 
Grindbox 
Частий відвідувач


З нами з: 14.08.16
Востаннє: 11.09.19
Повідомлень: 32

2018-08-20 09:08  
Виглядає цікаво.
ExorcistZp 
Частий відвідувач


З нами з: 23.09.14
Востаннє: 11.11.19
Повідомлень: 31

2019-01-15 02:00  
Дуже красиве, вишукане кіно... Його сприймаєш серцем, не розумом. Його можна порівняти з ароматом і це буде доречним, коли згадуєш режисера картини, робота воїстину дуже тонка і крихка, вона розкривається як ольфакторна пірамідка... Неперевершений музичний супровід, дуже гармонійний, дивишся як кліп, просто гіпнотично змінюється забарвлення, світ ніби вицвітає та знову наповнюється кольором, так цікаво уповільнюється та прискорюється плин часу... Мені здається, я вдихнула на початку і видихнула наприкінці...
Так, цей фільм комусь обов"язково здасться нудним... Він не рясніє пригодами або сюжетними поворотами... Це фільм-сповідь, як я їх називаю. Про те, як один телефонний дзвінок змінює життя і відбирає зміст, про неможливість і небажання шукати зміст в іншому... Про самотність. Про невипадкові випадковості. Коли найближчий друг навіть не здогадується про твій неповоротний вибір, а геть чужа людина відчуває бажання допомогти... Бог мій, тільки заради очей Ніколаса Холта потрібно включати цей фільм... Приголомшливо красивий хлопчик, просто херувімчик. Колін Ферт так само бездоганний і його номінація на Оскар за цю роль - виправдана на всі 200.
Мені важко оцінювати це кіно, або якось розбирати на дрібочки. Я просто насолоджувалась... Тією любов"ю, якою був сповнений сюжет, тугою, красою... В останній сцені, поки відстукував годинник, все голосніше і голосніше, моє серце навіть пропустило удар, або навіть два удари... Я не хочу жити в світі, в якому нема місця для ніжності.
Оцінка найвища.

Ваш часовий пояс: GMT + 2 Години

Нова тема   Відповісти