Убивці / Наймані вбивці / Assassins (1995) 1080p H.265 2xUkr/Eng | Sub Eng

Нові коментарі

Нова тема   Відповісти
Автор Повідомлення
Anonymous 







2018-08-19 17:38  
Убивці / Наймані вбивці / Assassins (1995) 1080p H.265 2xUkr/Eng | Sub Eng

Убивці / Наймані вбивці / Assassins (1995) 1080p H.265 2xUkr/Eng | Sub Eng


Жанр: кримінальний, пригодницький, екшн, трилер, бойовик
Країна: США, Францiя
Кінокомпанія: Warner Bros. Pictures, Silver Pictures, Donner/Shuler-Donner Productions, Canal+ [fr]
Режисер: Річард Доннер
Актори: Сiльвестр Сталоне, Антоніо Бандерас, Джуліана Мур та iншi

Сюжет:
Роберт Рет - кращий найманий вбивця в окрузі, але кодекс честі і почуття обов'язку, що колись складали частину його смертельної кар'єри, зникли. Світ, що виник після холодної війни, переповнений "відморозками". Рет хоче "зав'язати". Інший кілер, Міґель Бейн, амбітний молодий чоловік - навпаки прагне стати першим у своїй справі і знає, як це зробити - знищити Рета. Дія розгортається стрімко і непередбачувано, коли Сильвестер Сталлоне в ролі Рета і Антоніо Бандерас в ролі Бейна захищають свою професійну честь найманих убивць. Джуліан Мур грає хитрого хакера, затягнутого в жорстоку сутичку кілерського дуету.

Тривалість: 02:12:44
Якість:

Відео:
кодек: H.265 (HEVC)
розмір кадру: 1920 x 1080
бітрейт: 10 445 кб/с
бітова глибина: 10 біт

Увага! Перед завантаженням переконайтесь, що ваш пристрій відтворення (та/або ПЗ) підтримує H.265 (HEVC)

Аудіо # 1:
мова: українська
переклад: багатоголосий закадровий | ТВ+
кодек: 5.1
бітрейт: 1510 кб/с

Аудіо # 2:
мова: українська
переклад: двоголосий закадровий
кодек: AC-3 2.0
бітрейт: 192 кб/с

Аудіо # 3:
мова: англійська
переклад: оригінал
кодек: 5.1
бітрейт: 1510 кб/с

Субтитри # 1: (Full)
мова: англійська
тип: програмні (м'які)
формат: *.srt


Info
Код:
General
Unique ID                                : 6878072485011254969681082289041399973 (0x52CAB27C987BC3292D64B3AAC6360A5)
Complete name                            : Assassins (1995) 1080p H.265 [2xUKR_ENG] [Hurtom].
Format                                   :
Format version                           : Version 4
File size                                : 12.7 GiB
Duration                                 : 2 h 12 min
Overall bit rate                         : 13.6 Mb/s
Movie name                               : Убивці / Наймані вбивці / Assassins (1995)
Encoded date                             : UTC 2020-04-27 19:20:19
Writing application                      : v20.0.0 ('I Am The Sun') 64-bit
Writing library                          : libebml v1.3.5 + v1.4.8
Cover                                    : Yes
Attachments                              : Cover.jpg

Video
ID                                       : 1
Format                                   : HEVC
Format/Info                              : High Efficiency Video Coding
Format profile                           : Main [email protected]@Main
Codec ID                                 : V_MPEGH/ISO/HEVC
Duration                                 : 2 h 12 min
Bit rate                                 : 10.4 Mb/s
Width                                    : 1 920 pixels
Height                                   : 1 080 pixels
Display aspect ratio                     : 16:9
Frame rate mode                          : Constant
Frame rate                               : 23.976 (24000/1001) FPS
Color space                              : YUV
Chroma subsampling                       : 4:2:0
Bit depth                                : 10 bits
Bits/(Pixel*Frame)                       : 0.210
Stream size                              : 9.68 GiB (76%)
Title                                    : Убивці / Наймані вбивці / Assassins (1995)
Writing library                          : x265 3.3+2-gd9a7411cc:[Windows][MSVC 1925][64 bit] 10bit
Encoding settings                        : cpuid=1111039 / frame-threads=3 / numa-pools=8 / wpp / no-pmode / no-pme / no-psnr / no-ssim / log-level=2 / input-csp=1 / input-res=1920x1080 / interlace=0 / total-frames=190963 / level-idc=0 / high-tier=1 / uhd-bd=0 / ref=5 / no-allow-non-conformance / no-repeat-headers / annexb / no-aud / no-hrd / info / hash=0 / no-temporal-layers / open-gop / min-keyint=23 / keyint=240 / gop-lookahead=0 / bframes=13 / b-adapt=2 / b-pyramid / bframe-bias=0 / rc-lookahead=60 / lookahead-slices=0 / scenecut=40 / hist-scenecut=0 / radl=0 / no-splice / no-intra-refresh / ctu=64 / min-cu-size=8 / rect / amp / max-tu-size=32 / tu-inter-depth=4 / tu-intra-depth=4 / limit-tu=1 / rdoq-level=2 / dynamic-rd=0.00 / no-ssim-rd / signhide / no-tskip / nr-intra=0 / nr-inter=0 / no-constrained-intra / no-strong-intra-smoothing / max-merge=5 / limit-refs=3 / no-limit-modes / me=3 / subme=7 / merange=57 / temporal-mvp / no-frame-dup / no-hme / weightp / weightb / no-analyze-src-pics / deblock=-3:-3 / no-sao / no-sao-non-deblock / rd=6 / selective-sao=0 / no-early-skip / rskip / no-fast-intra / no-tskip-fast / no-cu-lossless / b-intra / no-splitrd-skip / rdpenalty=0 / psy-rd=2.00 / psy-rdoq=1.00 / no-rd-refine / no-lossless / cbqpoffs=0 / crqpoffs=0 / rc=crf / crf=19.4 / qcomp=0.70 / qpstep=4 / stats-write=0 / stats-read=0 / ipratio=1.40 / pbratio=1.30 / aq-mode=4 / aq-strength=0.80 / no-cutree / zone-count=1 / zones: / start-frame=182092 / end-frame=190945 / qp=36 / no-strict-cbr / qg-size=32 / no-rc-grain / qpmax=69 / qpmin=0 / no-const-vbv / sar=1 / overscan=0 / videoformat=5 / range=0 / colorprim=2 / transfer=2 / colormatrix=2 / chromaloc=0 / display-window=0 / cll=0,0 / min-luma=0 / max-luma=1023 / log2-max-poc-lsb=8 / vui-timing-info / vui-hrd-info / slices=1 / no-opt-qp-pps / no-opt-ref-list-length-pps / no-multi-pass-opt-rps / scenecut-bias=0.00 / hist-threshold=0.01 / no-opt-cu-delta-qp / no-aq-motion / no-hdr10 / no-hdr10-opt / no-dhdr10-opt / no-idr-recovery-sei / analysis-reuse-level=0 / analysis-save-reuse-level=0 / analysis-load-reuse-level=0 / scale-factor=0 / refine-intra=0 / refine-inter=0 / refine-mv=1 / refine-ctu-distortion=0 / no-limit-sao / ctu-info=0 / no-lowpass-dct / refine-analysis-type=0 / copy-pic=1 / max-ausize-factor=1.0 / no-dynamic-refine / no-single-sei / no-hevc-aq / no-svt / no-field / qp-adaptation-range=1.00 / no-scenecut-aware-qpconformance-window-offsets / right=0 / bottom=0
Language                                 : English
Default                                  : Yes
Forced                                   : No

Audio #1
ID                                       : 2
Format                                   :
Format/Info                              : Digital Theater Systems
Codec ID                                 : A_DTS
Duration                                 : 2 h 12 min
Bit rate mode                            : Constant
Bit rate                                 : 1 509 kb/s
Channel(s)                               : 6 channels
Channel layout                           : C L R Ls Rs LFE
Sampling rate                            : 48.0 kHz
Frame rate                               : 93.750 FPS (512 SPF)
Bit depth                                : 24 bits
Compression mode                         : Lossy
Stream size                              : 1.40 GiB (11%)
Title                                    : / 5.1 Ch / 1509 kbps / БЗ / ТВ+
Language                                 : Ukrainian
Default                                  : Yes
Forced                                   : Yes

Audio #2
ID                                       : 3
Format                                   : AC-3
Format/Info                              : Audio Coding 3
Commercial name                          : Dolby Digital
Codec ID                                 : A_AC3
Duration                                 : 2 h 12 min
Bit rate mode                            : Constant
Bit rate                                 : 192 kb/s
Channel(s)                               : 2 channels
Channel layout                           : L R
Sampling rate                            : 48.0 kHz
Frame rate                               : 31.250 FPS (1536 SPF)
Compression mode                         : Lossy
Stream size                              : 182 MiB (1%)
Title                                    : / 2.0 Ch / 192 kbps / ДЗ / 1+1
Language                                 : Ukrainian
Service kind                             : Complete Main
Default                                  : No
Forced                                   : No

Audio #3
ID                                       : 4
Format                                   :
Format/Info                              : Digital Theater Systems
Codec ID                                 : A_DTS
Duration                                 : 2 h 12 min
Bit rate mode                            : Constant
Bit rate                                 : 1 509 kb/s
Channel(s)                               : 6 channels
Channel layout                           : C L R Ls Rs LFE
Sampling rate                            : 48.0 kHz
Frame rate                               : 93.750 FPS (512 SPF)
Bit depth                                : 24 bits
Compression mode                         : Lossy
Stream size                              : 1.40 GiB (11%)
Title                                    : / 5.1 Ch / 1509 kbps / Original
Language                                 : English
Default                                  : No
Forced                                   : No

Text
ID                                       : 5
Format                                   : UTF-8
Codec ID                                 : S_TEXT/UTF8
Codec ID/Info                            : UTF-8 Plain Text
Duration                                 : 2 h 12 min
Bit rate                                 : 37 b/s
Count of elements                        : 1298
Stream size                              : 36.5 KiB (0%)
Title                                    : Full
Language                                 : English
Default                                  : No
Forced                                   : No

Menu
00:00:00.000                             : en:Marks Past and Present
00:05:35.293                             : en:Next Mark
00:10:00.933                             : en:Another Assassin
00:14:44.466                             : en:Officers Down, Suspect Gone
00:17:39.099                             : en:New Wheels
00:19:01.640                             : en:Chitchat with a Passenger
00:24:35.015                             : en:Reckless Driving
00:30:03.718                             : en:Bishop Takes Rook Pawn
00:31:34.183                             : en:New Mark
00:34:57.804                             : en:A Watchful Eye
00:36:47.413                             : en:Furry Mischief
00:37:56.774                             : en:The Players Gather
00:44:13.442                             : en:Miguel Strikes
00:48:12.472                             : en:The Unfinished Mark
00:55:02.215                             : en:Death at Close Quarters
00:59:54.924                             : en:Birthday Blast
01:03:05.698                             : en:Two Nobody's Spending Time Together
01:06:50.506                             : en:Contact Reassigned
01:08:38.447                             : en:A Way to Make a Million
01:12:37.269                             : en:Payoff for Keeps
01:17:07.331                             : en:New Arrangements
01:20:52.556                             : en:The Desired Mark
01:22:00.498                             : en:Memory Hotel
01:27:24.280                             : en:The Day of the Dead
01:31:34.989                             : en:Cemetery Cat-and-Mouse
01:35:18.003                             : en:The Waiting Game
01:41:39.802                             : en:Warm and Happy Stories
01:42:59.840                             : en:Out of Patience
01:46:12.115                             : en:The Lady Takes a Chance
01:47:33.530                             : en:Final Chitchat
01:52:24.195                             : en:Pulling the Trigger
01:55:42.602                             : en:Bullets Among the Ruins
01:57:09.772                             : en:Falling Down
01:59:17.984                             : en:The Contractor
02:01:53.639                             : en:The Correct Mark
02:03:05.711                             : en:"No Goodbyes"
02:06:34.878                             : en:End Credits
Світлини




Джерело: &
Особиста оцінка: 0 - не дивився


Срібний реліз (на рейтинг впливає 50% завантаженого)
 Трекер:    Зареєстрований   

Завантажити / скачати фільм українською



відео для новачків



 Зареєстрований:   2020-04-27 23:27
 Розмір:   12.67 GB 
 Оцінка фільму:   9.9/10 (Голосів: 9)
   
Ваш часовий пояс: GMT + 2 Години

Нова тема   Відповісти