Недитяче кіно / Not Another Teen Movie (2001) 720p 3xUkr/Eng | Sub Eng

Нові коментарі

Нова тема   Відповісти
Автор Повідомлення
staf777 
Відео Гуртом - підтримка та поширення
Відео Гуртом - підтримка та поширення


З нами з: 16.11.16
Востаннє: 27.06.19
Повідомлень: 2565

2018-08-19 16:16  
Недитяче кіно / Not Another Teen Movie (2001) 720p 3xUkr/Eng | Sub Eng

Недитяче кіно / Not Another Teen Movie (2001) 720p 3xUkr/Eng | Sub Eng


Жанр: комедія
Країна: США



Кінокомпанія: Columbia Pictures Corporation, Original Film, Neal H. Moritz Productions
Режисер: Джоіл Галлен / Joel Gallen
Актори: Кайлер Лі / Chyler Leigh, Кріс Еванс / Chris Evans, Джеймі Преслі / Jaime Pressly, Ерік Крістіан Олсен / Eric Christian Olsen, Міа Кіршнер / Mia Kirshner, Діон Річмонд / Deon Richmond, Ерік Джангманн / Eric Jungmann та інші

Сюжет:
Популярний у школі хлопець, зірка футбольної команди Джейк Вайлер, засліплений власною славою й успіхом, укладає парі зі своїми друзями.
Вайлер робить ставку на те, що може зробити з будь-якої дівчини школи королеву шкільного балу. Друзі відразу ж вибирають предмет свого жарту - зовні непривабливу художницю-любительку Джені Брігс, чий комбінезон завжди в фарбі, яка носить окуляри та збирає своє волосся у "хвіст". Джені є ізгоєм у своєму класі, проте пройшовши через низку подій, Вайлер розуміє, що закоханий у неї по вуха...


Тривалість: 01:29:00
Якість:
Відео:
кодек:
розмір кадру: 1280x688
бітрейт: 5500 кб/с

Аудіо # 1:
мова: українська
переклад: багатоголосий закадровий
кодек: 2.0
бітрейт: 192 кб/с

Аудіо # 2:
мова: українська
переклад: багатоголосий закадровий
кодек: 2.0
бітрейт: 192 кб/с

Аудіо # 3:
мова: українська
переклад: багатоголосий закадровий
кодек: 2.0
бітрейт: 192 кб/с

Аудіо # 4:
мова: англійська
переклад: оригінал
кодек: 5.1
бітрейт: 448 кб/с

Субтитри:
мова: англійська
тип: програмні (м'які)
формат: *.Vob
Info
General
Unique ID : 133204775044403220658876711884119104907 (0x64364E76BD99B5D3DBCEB89BEAD05D8B)
Complete name : D:\Майбутні релізи\Not Another Teen Movie (2001) 720p [3xUKR_ENG] [Hurtom].
Format :
Format version : Version 4 / Version 2
File size : 4.06 GiB
Duration : 1 h 29 min
Overall bit rate : 6 529 kb/s
Movie name : Not Another Teen Movie (2001) 720p [3xUKR_ENG] [Hurtom]
Encoded date : UTC 2018-08-20 11:19:02
Writing application : v24.0.0 ('Beyond The Pale') 64-bit
Writing library : libebml v1.3.6 + v1.4.9
Attachments : poster.jpg

Video
ID : 1
Format : AVC
Format/Info : Advanced Video Codec
Format profile : [email protected]
Format settings : CABAC / 8 Ref Frames
Format settings, CABAC : Yes
Format settings, ReFrames : 8 frames
Codec ID : V_MPEG4/ISO/AVC
Duration : 1 h 29 min
Bit rate : 5 500 kb/s
Width : 1 280 pixels
Height : 688 pixels
Display aspect ratio : 1.85:1
Frame rate mode : Variable
Frame rate : 23.976 (23976/1000) FPS
Original frame rate : 23.976 (24000/1001) FPS
Color space : YUV
Chroma subsampling : 4:2:0
Bit depth : 8 bits
Scan type : Progressive
Bits/(Pixel*Frame) : 0.260
Stream size : 3.42 GiB (84%)
Title : RIP_BY_-=DoMiNo=-
Writing library : core 148 r2744M b97ae06
Encoding settings : cabac=1 / ref=8 / deblock=1:-3:-3 / analyse=0x3:0x133 / me=umh / subme=11 / psy=1 / psy_rd=1.00:0.10 / mixed_ref=1 / me_range=48 / chroma_me=1 / trellis=2 / 8x8dct=1 / cqm=0 / deadzone=21,11 / fast_pskip=0 / chroma_qp_offset=-3 / threads=5 / lookahead_threads=1 / sliced_threads=0 / nr=0 / decimate=1 / interlaced=0 / bluray_compat=0 / constrained_intra=0 / bframes=9 / b_pyramid=2 / b_adapt=2 / b_bias=0 / direct=3 / weightb=1 / open_gop=0 / weightp=2 / keyint=230 / keyint_min=23 / scenecut=40 / intra_refresh=0 / rc=2pass / mbtree=0 / bitrate=5500 / ratetol=1.0 / qcomp=0.60 / qpmin=0 / qpmax=69 / qpstep=4 / cplxblur=20.0 / qblur=0.5 / ip_ratio=1.40 / pb_ratio=1.30 / aq=1:1.00
Default : Yes
Forced : No

Audio #1
ID : 2
Format : AC-3
Format/Info : Audio Coding 3
Codec ID : A_AC3
Duration : 1 h 29 min
Bit rate mode : Constant
Bit rate : 192 kb/s
Channel(s) : 2 channels
Channel positions : Front: L R
Sampling rate : 48.0 kHz
Frame rate : 31.250 FPS (1536 SPF)
Bit depth : 16 bits
Compression mode : Lossy
Stream size : 122 MiB (3%)
Title : [UA-MVO]
Language : Ukrainian
Service kind : Complete Main
Default : Yes
Forced : Yes

Audio #2
ID : 3
Format : AC-3
Format/Info : Audio Coding 3
Codec ID : A_AC3
Duration : 1 h 29 min
Bit rate mode : Constant
Bit rate : 192 kb/s
Channel(s) : 2 channels
Channel positions : Front: L R
Sampling rate : 48.0 kHz
Frame rate : 31.250 FPS (1536 SPF)
Bit depth : 16 bits
Compression mode : Lossy
Stream size : 122 MiB (3%)
Title : [UA-MVO-K1]
Language : Ukrainian
Service kind : Complete Main
Default : No
Forced : No

Audio #3
ID : 4
Format : AC-3
Format/Info : Audio Coding 3
Codec ID : A_AC3
Duration : 1 h 29 min
Bit rate mode : Constant
Bit rate : 192 kb/s
Channel(s) : 2 channels
Channel positions : Front: L R
Sampling rate : 48.0 kHz
Frame rate : 31.250 FPS (1536 SPF)
Bit depth : 16 bits
Compression mode : Lossy
Stream size : 122 MiB (3%)
Title : [UA-MVO]
Language : Ukrainian
Service kind : Complete Main
Default : No
Forced : No

Audio #4
ID : 5
Format : AC-3
Format/Info : Audio Coding 3
Codec ID : A_AC3
Duration : 1 h 29 min
Bit rate mode : Constant
Bit rate : 448 kb/s
Channel(s) : 6 channels
Channel positions : Front: L C R, Side: L R, LFE
Sampling rate : 48.0 kHz
Frame rate : 31.250 FPS (1536 SPF)
Bit depth : 16 bits
Compression mode : Lossy
Stream size : 285 MiB (7%)
Title : ENG
Language : English
Service kind : Complete Main
Default : No
Forced : No

Text
ID : 6
Format : VobSub
Muxing mode : zlib
Codec ID : S_VOBSUB
Codec ID/Info : Picture based subtitle format used on DVDs
Duration : 1 h 28 min
Bit rate : 12.2 kb/s
Count of elements : 1005
Stream size : 7.76 MiB (0%)
Title : ENG
Language : English
Default : No
Forced : No
Скріншоти




За українські доріжки подяка п.: Breniak, LIONN, xslim, SweetN, Neytreenor
За допомогу в створені реліза дякую пану drop_plz
Джерело:
Особиста оцінка: 8 - мені сподобалося


Срібний реліз (на рейтинг впливає 50% завантаженого)
 Трекер:    Зареєстрований   

Завантажити / скачати фільм українською



відео для новачків



 Зареєстрований:   2018-08-20 14:34
 Розмір:   4.06 GB 
 Оцінка фільму:   9.4/10 (Голосів: 7)
   
bot 
робот


З нами з: 30.09.07
Востаннє: 26.05.05
Повідомлень: 21565

2018-08-19 16:16  
Тему перенесено з Фільми в HD до форуму Анонси релізів


staf777

bot 
робот


З нами з: 30.09.07
Востаннє: 26.05.05
Повідомлень: 21565

2018-08-20 14:34  
Тему перенесено з Анонси релізів до форуму Фільми в HD


staf777

Ваш часовий пояс: GMT + 2 Години

Нова тема   Відповісти