Нерозкрита справа: Вбивство Тупака і Біґґі / Unsolved (Season 1) (2018) 720p Eng | sub Ukr

Нові коментарі

Нова тема   Відповісти
Автор Повідомлення
Anonymous 







2018-08-19 13:13  
Нерозкрита справа: Вбивство Тупака і Біґґі / Unsolved (Season 1) (2018) 720p Eng | sub Ukr

Нерозкрита справа: Вбивство Тупака і Біґґі / Unsolved (Season 1) (2018) 720p Eng | sub Ukr


Жанр: біографічний, кримінальний
Країна: США



Кінокомпанія: Netflix, USA Originals
Режисер: Ентоні Хемінгуей
Актори: Вейв Джонс, Марк Роз, Аіша Хіндс, Джиммі Сімпсон, Джош Демел.

Сюжет:
Серіал антологія [як "американська історія злочинів"]
У першому сезоні розповідається про розслідування вбивства двох легенд реп - музики Тупака Шакура та Біґґі Смоллза - Крістофера Волеза.
Список серій

1. "Wherever It Leads"
2. "Nobody Talks"
3. "The Mack"
4. "Take Your Best Shot"
5. "The Art of War"
6. "East Coast, West Coast"
7. "Half the Job"
8. "Tupac Amaru Shakur"
9. "Christopher"
10. "Unsolved?"
Тривалість: 50хв [10 з 10]
Якість:
Відео:
кодек:
розмір кадру: 1280x720
бітрейт: 3451 кб/с

Аудіо:
мова: англійська
переклад: оригінал
кодек: 5.1
бітрейт: 640 кб/с

Субтитри:
мова: українська
тип: програмні (м'які)
формат: *.srt
Скріншоти






МІ
Complete name : H:\Serials\Unsolved (Season 01) 720p\Unsolved. s01e01.
Format :
Format version : Version 4 / Version 2
File size : 1.60 GiB
Duration : 55 min 49 s
Overall bit rate mode : Variable
Overall bit rate : 4 092 kb/s
Encoded date : UTC 2018-08-19 10:21:58
Writing application : v24.0.0 ('Beyond The Pale') 64-bit
Writing library : libebml v1.3.6 + v1.4.9

Video
ID : 1
Format : AVC
Format/Info : Advanced Video Codec
Format profile : [email protected]
Format settings : CABAC / 5 Ref Frames
Format settings, CABAC : Yes
Format settings, ReFrames : 5 frames
Codec ID : V_MPEG4/ISO/AVC
Duration : 55 min 49 s
Bit rate mode : Variable
Bit rate : 3 451 kb/s
Maximum bit rate : 4 500 kb/s
Width : 1 280 pixels
Height : 720 pixels
Display aspect ratio : 16:9
Frame rate mode : Constant
Frame rate : 23.976 (24000/1001) FPS
Color space : YUV
Chroma subsampling : 4:2:0
Bit depth : 8 bits
Scan type : Progressive
Bits/(Pixel*Frame) : 0.156
Stream size : 1.35 GiB (84%)
Language : English
Default : Yes
Forced : No
Color range : Limited
Color primaries : BT.709
Transfer characteristics : BT.709
Matrix coefficients : BT.709

Audio
ID : 2
Format : E-AC-3
Format/Info : Enhanced AC-3
Commercial name : Dolby Digital Plus
Codec ID : A_EAC3
Duration : 55 min 49 s
Bit rate mode : Constant
Bit rate : 640 kb/s
Channel(s) : 6 channels
Channel positions : Front: L C R, Side: L R, LFE
Sampling rate : 48.0 kHz
Frame rate : 31.250 FPS (1536 SPF)
Compression mode : Lossy
Stream size : 256 MiB (16%)
Language : English
Service kind : Complete Main
Default : No
Forced : No
Джерело:
Особиста оцінка: 10 - без зайвих вагань рекомендую всім фанам.


Бронзовий реліз (на рейтинг впливає 75% завантаженого)
 Трекер:    Зареєстрований   

Завантажити / скачати серіал українською



відео для новачків



 Зареєстрований:   2018-08-19 13:13
 Розмір:   10.36 GB 
 Оцінка серіалу:   10/10 (Голосів: 5)
   
Dark Invader 
Модератор відео


З нами з: 06.01.11
Востаннє: 27.11.20
Повідомлень: 3007

2018-08-19 15:38  
Яке джерело субтитрів?
Anonymous 







2018-08-19 15:53  
Dark Invader
Netflix
додав в опис

tm 
Новенький


З нами з: 17.03.09
Востаннє: 03.11.20
Повідомлень: 13

2018-09-01 23:04  
Роздайте будь ласка!
Ваш часовий пояс: GMT + 2 Години

Нова тема   Відповісти