Захисник / Safe (2012) 1080p 2xUkr/Eng | Sub Eng

Нові коментарі

Нова тема   Відповісти
Автор Повідомлення
staf777 
Відео Гуртом - підтримка та поширення
Відео Гуртом - підтримка та поширення


З нами з: 16.11.16
Востаннє: 04.12.19
Повідомлень: 3038

2018-08-19 09:37  
Захисник / Safe (2012) 1080p 2xUkr/Eng | Sub Eng

Захисник / Safe (2012) 1080p 2xUkr/Eng | Sub Eng


Жанр: екшн, кримінальний, трилер
Країна: США



Кінокомпанія: IM Global, Automatik Entertainment, Lawrence Bender Productions
Режисер: Боаз Якін
Актори: Джейсон Стетгем, Кетрін Чан, Роберт Джон Берк, Джеймс Гонг, Енсон Маунт, Кріс Сарандон, Сандор Текс, Джозеф Сікора, Ігор Жижикін, Реґґі Лі

Сюжет:
Колишній агент елітних спецслужб випадково рятує від мафії геніальну дівчинку, якій відомо код сейфа китайських Тріад. Тепер на неї йде полювання і врятувати її від усіх мерзотників Нью-Йорка, включаючи азіатських асасинів і корумпованих поліцейських, може тільки Професіонал...


Тривалість: 01:34:37
Якість: 1080p [BluRay 1080p AVC -HD MA 7.1-HDChina | US-transfer]
Відео:
кодек:
розмір кадру: 1920 x 816
бітрейт: 18000 кб/с

Аудіо # 1:
мова: українська
переклад: багатоголосий закадровий
кодек: 2.0
бітрейт: 192 кб/с

Аудіо # 2:
мова: українська
переклад: багатоголосий закадровий
кодек: 2.0
бітрейт: 192 кб/с

Аудіо # 3:
мова: англійська
переклад: оригінал
кодек: 5.1
бітрейт: 640 кб/с

Субтитри:
мова: англійська
тип: програмні (м'які)
формат: *.srt
Скріншоти




MI
General
Unique ID : 84733145730215783439924349477126516664 (0x3FBF02A0AFF8DA6BAEF0290BB74DAFB8)
Complete name : D:\Майбутні релізи\ Safe (2012) 1080p [2xUkr,Eng sub.Eng][Hurtom].
Format :
Format version : Version 4 / Version 2
File size : 12.6 GiB
Duration : 1 h 34 min
Overall bit rate : 19.0 Mb/s
Movie name : Safe (2012) 1080p [2xUkr,Eng sub.Eng][Hurtom]
Encoded date : UTC 2018-08-20 14:48:55
Writing application : v24.0.0 ('Beyond The Pale') 64-bit
Writing library : libebml v1.3.6 + v1.4.9
Cover : Yes
Attachments : cover.jpg

Video
ID : 1
Format : AVC
Format/Info : Advanced Video Codec
Format profile : [email protected]
Format settings : CABAC / 5 Ref Frames
Format settings, CABAC : Yes
Format settings, ReFrames : 5 frames
Codec ID : V_MPEG4/ISO/AVC
Duration : 1 h 34 min
Bit rate : 18.0 Mb/s
Width : 1 920 pixels
Height : 816 pixels
Display aspect ratio : 2.35:1
Frame rate mode : Constant
Frame rate : 23.976 (24000/1001) FPS
Color space : YUV
Chroma subsampling : 4:2:0
Bit depth : 8 bits
Scan type : Progressive
Bits/(Pixel*Frame) : 0.479
Stream size : 11.9 GiB (95%)
Title : Encode: [email protected]
Writing library : core 116 r2057 0ba8a9c
Encoding settings : cabac=1 / ref=5 / deblock=1:-3:-3 / analyse=0x3:0x133 / me=umh / subme=10 / psy=1 / psy_rd=1.00:0.00 / mixed_ref=1 / me_range=32 / chroma_me=1 / trellis=2 / 8x8dct=1 / cqm=0 / deadzone=21,11 / fast_pskip=0 / chroma_qp_offset=-2 / threads=14 / sliced_threads=0 / nr=0 / decimate=0 / interlaced=0 / bluray_compat=0 / constrained_intra=0 / bframes=7 / b_pyramid=2 / b_adapt=2 / b_bias=0 / direct=3 / weightb=1 / open_gop=0 / weightp=2 / keyint=250 / keyint_min=23 / scenecut=40 / intra_refresh=0 / rc_lookahead=40 / rc=2pass / mbtree=0 / bitrate=18000 / ratetol=1.0 / qcomp=0.65 / qpmin=0 / qpmax=40 / qpstep=4 / cplxblur=20.0 / qblur=0.5 / vbv_maxrate=50000 / vbv_bufsize=50000 / nal_hrd=none / ip_ratio=1.25 / pb_ratio=1.25 / aq=1:0.65
Language : English
Default : Yes
Forced : No

Audio #1
ID : 2
Format : AC-3
Format/Info : Audio Coding 3
Codec ID : A_AC3
Duration : 1 h 34 min
Bit rate mode : Constant
Bit rate : 192 kb/s
Channel(s) : 2 channels
Channel positions : Front: L R
Sampling rate : 48.0 kHz
Frame rate : 31.250 FPS (1536 SPF)
Bit depth : 16 bits
Compression mode : Lossy
Stream size : 130 MiB (1%)
Title : [UA-MVO-1+1]
Language : Ukrainian
Service kind : Complete Main
Default : Yes
Forced : Yes

Audio #2
ID : 3
Format : AC-3
Format/Info : Audio Coding 3
Codec ID : A_AC3
Duration : 1 h 34 min
Bit rate mode : Constant
Bit rate : 192 kb/s
Channel(s) : 2 channels
Channel positions : Front: L R
Sampling rate : 48.0 kHz
Frame rate : 31.250 FPS (1536 SPF)
Bit depth : 16 bits
Compression mode : Lossy
Stream size : 130 MiB (1%)
Title : [UA-MVO-ICTV]
Language : Ukrainian
Service kind : Complete Main
Default : No
Forced : No

Audio #3
ID : 4
Format : AC-3
Format/Info : Audio Coding 3
Codec ID : A_AC3
Duration : 1 h 34 min
Bit rate mode : Constant
Bit rate : 640 kb/s
Channel(s) : 6 channels
Channel positions : Front: L C R, Side: L R, LFE
Sampling rate : 48.0 kHz
Frame rate : 31.250 FPS (1536 SPF)
Bit depth : 16 bits
Compression mode : Lossy
Stream size : 433 MiB (3%)
Title : Original
Language : English
Service kind : Complete Main
Default : No
Forced : No

Text
ID : 5
Format : UTF-8
Codec ID : S_TEXT/UTF8
Codec ID/Info : UTF-8 Plain Text
Duration : 1 h 25 min
Bit rate : 51 b/s
Count of elements : 906
Stream size : 32.2 KiB (0%)
Language : English
Default : No
Forced : No

Menu
00:00:00.000 : en:00:00:00.000
00:04:42.282 : en:00:04:42.282
00:06:50.327 : en:00:06:50.327
00:09:57.889 : en:00:09:57.889
00:14:03.718 : en:00:14:03.718
00:17:52.613 : en:00:17:52.613
00:20:48.289 : en:00:20:48.289
00:24:09.990 : en:00:24:09.990
00:29:30.977 : en:00:29:30.977
00:35:33.548 : en:00:35:33.548
00:40:11.868 : en:00:40:11.868
00:44:33.838 : en:00:44:33.838
00:47:28.679 : en:00:47:28.679
00:53:31.458 : en:00:53:31.458
00:56:21.336 : en:00:56:21.336
01:00:05.143 : en:01:00:05.143
01:02:59.401 : en:01:02:59.401
01:08:03.621 : en:01:08:03.621
01:11:55.311 : en:01:11:55.311
01:15:32.820 : en:01:15:32.820
01:17:50.541 : en:01:17:50.541
01:20:56.101 : en:01:20:56.101
01:24:25.185 : en:01:24:25.185
01:27:11.268 : en:01:27:11.268
Подяка панам OlegCena та xslim за запис Аудіо №1 і пану OlegCena за запис Аудіо №2. Синхронізація Gelios
Джерело: &
Особиста оцінка: 0 - не дивився


 Трекер:    Зареєстрований   

Завантажити / скачати фільм українською



відео для новачків



 Зареєстрований:   2018-08-21 11:47
 Розмір:   12.57 GB 
 Оцінка фільму:   10/10 (Голосів: 6)
   
Інші релізи
   Захисник / Safe (2012) AVC 2xUkr/Eng | Sub Eng staf777  3 / 0   2.14 GB   2018-08-19 09:44 
   Захисник / Safe (2012) 2xUkr/Eng Gelios  8 / 0   1.45 GB   2015-03-10 08:38 
   Захисник / Safe (2012) 720p Ukr/Eng | Sub Eng kino.  5 / 0   4.33 GB   2013-09-30 17:10 
   Захисник / Safe (2012) | Mic LiquidatorFX  2 / 0   1.46 GB   2012-05-30 17:44 
bot 
робот


З нами з: 30.09.07
Востаннє: 26.05.05
Повідомлень: 22587

2018-08-21 11:47  
Тему перенесено з Анонси релізів до форуму Фільми в HD


staf777

Ваш часовий пояс: GMT + 2 Години

Нова тема   Відповісти