Пограбування казино (Убий їх тихо) / Killing Them Softly (2012) 720p Ukr/Eng | Sub Eng

Нові коментарі

Нова тема   Відповісти
Автор Повідомлення
Anonymous 







2018-08-19 07:13  
Пограбування казино (Убий їх тихо) / Killing Them Softly (2012) 720p Ukr/Eng | Sub Eng

Пограбування казино (Убий їх тихо) / Killing Them Softly (2012) 720p Ukr/Eng | Sub Eng


Жанр: кримінальний, трилер
Країна: США



Кінокомпанія: Plan B Entertainment, 1984 Private Defense Contractors, Annapurna Pictures
Режисер: Ендрю Домінік / Andrew Dominik
Актори: Бред Пітт / Brad Pitt, Скот МакНейрі / Scoot McNairy, Бен Мендельсон / Ben Mendelsohn, Річард Дженкінс / Richard Jenkins, Джеймс Ґандольфіні / James Gandolfini, Рей Ліотта / Ray Liotta, Сем Шепард / Sam Shepard, Слейн / Slaine, Макс Казелла / Max Casella, Тревор Лонґ / Trevor Long

Сюжет:
Під час підпільної гри у покер скоєно пограбування, і загроза зависла над всім злодійським співтовариством. Ділки мафії розраховують, що Джекі Коґан знайде винних. Проте, обертаючись серед нерішучих замовників, шахраїв, втомлених вбивць і тих, хто спланував «справу», навіть фахівцю важко зберегти контроль над ситуацією...


Тривалість: 01:37:14
Якість: 720p
Відео:
кодек:
розмір кадру: 1280х534
бітрейт: 5 390 кб/с

Аудіо # 1:
мова: українська
переклад: багатоголосий закадровий
кодек: 2.0
бітрейт: 192 кб/с

Аудіо # 2:
мова: англійська
переклад: оригінал
кодек: 5.1
бітрейт: 640 кб/с

Субтитри:
мова: англійська (Full, SDH)
тип: програмні (м'які)
формат: *.srt
Info
General
Unique ID : 222342672869964916602712903967394702617 (0xA745A4230807070C98473C8F992F2519)
Complete name : H:\Toloka\2018\Killing Them Softly (2012) 720p.
Format :
Format version : Version 4 / Version 2
File size : 4.31 GiB
Duration : 1 h 37 min
Overall bit rate : 6 348 kb/s
Encoded date : UTC 2018-08-19 03:53:22
Writing application : v6.1.0 ('Old Devil') built on Mar 4 2013 09:10:42
Writing library : libebml v1.3.0 + v1.4.0

Video
ID : 1
Format : AVC
Format/Info : Advanced Video Codec
Format profile : [email protected]
Format settings : CABAC / 11 Ref Frames
Format settings, CABAC : Yes
Format settings, ReFrames : 11 frames
Codec ID : V_MPEG4/ISO/AVC
Duration : 1 h 37 min
Bit rate : 5 390 kb/s
Width : 1 280 pixels
Height : 534 pixels
Display aspect ratio : 2.40:1
Frame rate mode : Constant
Frame rate : 23.976 (24000/1001) FPS
Color space : YUV
Chroma subsampling : 4:2:0
Bit depth : 8 bits
Scan type : Progressive
Bits/(Pixel*Frame) : 0.329
Stream size : 3.66 GiB (85%)
Writing library : core 130 r2273 b3065e6
Encoding settings : cabac=1 / ref=11 / deblock=1:-3:-3 / analyse=0x3:0x133 / me=umh / subme=10 / psy=1 / psy_rd=1.05:0.00 / mixed_ref=1 / me_range=24 / chroma_me=1 / trellis=2 / 8x8dct=1 / cqm=0 / deadzone=21,11 / fast_pskip=0 / chroma_qp_offset=-2 / threads=12 / lookahead_threads=2 / sliced_threads=0 / nr=0 / decimate=0 / interlaced=0 / bluray_compat=0 / constrained_intra=0 / bframes=8 / b_pyramid=2 / b_adapt=2 / b_bias=0 / direct=3 / weightb=1 / open_gop=0 / weightp=2 / keyint=240 / keyint_min=23 / scenecut=40 / intra_refresh=0 / rc_lookahead=60 / rc=crf / mbtree=0 / crf=16.3 / qcomp=0.75 / qpmin=0 / qpmax=69 / qpstep=4 / vbv_maxrate=50000 / vbv_bufsize=62500 / crf_max=0.0 / nal_hrd=none / ip_ratio=1.25 / pb_ratio=1.15 / aq=1:0.70
Language : English
Default : Yes
Forced : No

Audio #1
ID : 2
Format : AC-3
Format/Info : Audio Coding 3
Codec ID : A_AC3
Duration : 1 h 37 min
Bit rate mode : Constant
Bit rate : 192 kb/s
Channel(s) : 2 channels
Channel positions : Front: L R
Sampling rate : 48.0 kHz
Frame rate : 31.250 FPS (1536 SPF)
Bit depth : 16 bits
Compression mode : Lossy
Stream size : 134 MiB (3%)
Title : UKR (1+1)
Language : Ukrainian
Service kind : Complete Main
Default : Yes
Forced : Yes

Audio #2
ID : 3
Format : AC-3
Format/Info : Audio Coding 3
Codec ID : A_AC3
Duration : 1 h 37 min
Bit rate mode : Constant
Bit rate : 640 kb/s
Channel(s) : 6 channels
Channel positions : Front: L C R, Side: L R, LFE
Sampling rate : 48.0 kHz
Frame rate : 31.250 FPS (1536 SPF)
Bit depth : 16 bits
Compression mode : Lossy
Stream size : 445 MiB (10%)
Language : English
Service kind : Complete Main
Default : No
Forced : No

Text #1
ID : 4
Format : UTF-8
Codec ID : S_TEXT/UTF8
Codec ID/Info : UTF-8 Plain Text
Language : English
Default : No
Forced : No

Text #2
ID : 5
Format : UTF-8
Codec ID : S_TEXT/UTF8
Codec ID/Info : UTF-8 Plain Text
Title : SDH
Language : English
Default : No
Forced : No

Menu
00:00:00.000 : en:American Promise
00:11:11.796 : en:The Turn Over
00:23:35.372 : en:Running Things
00:29:25.096 : en:You OK Markie?
00:35:25.665 : en:Circle in a Spiral
00:46:34.708 : en:Flying Coach
00:54:55.333 : en:Nice and Smooth
01:05:37.350 : en:Busted
01:10:36.106 : en:Going for Nothing
01:17:56.922 : en:I Asked You Nice
01:23:01.017 : en:Might of Our Arms
01:31:18.055 : en:End Credits
Скріншоти








За українську доріжку подяка п.: Sando7, ratbol, OlegCena, MAKAPOHHIK, karvai0
Особиста подяка пану denixx за надану матеріальну допомогу на підтримку цього і майбутніх релізів.
Джерело:


 Трекер:    Зареєстрований   

Завантажити / скачати фільм українською



відео для новачків



 Зареєстрований:   2018-08-19 07:13
 Розмір:   4.31 GB 
 Оцінка фільму:   9.3/10 (Голосів: 3)
   
Ваш часовий пояс: GMT + 2 Години

Нова тема   Відповісти