Механічний апельсин / A Clockwork Orange (1971) 1080p H.265 Ukr/Eng | Sub Eng

Нові коментарі

Нова тема   Відповісти
Автор Повідомлення
Anonymous 







2018-08-19 02:13  
Механічний апельсин / A Clockwork Orange (1971) 1080p H.265 Ukr/Eng | Sub Eng

Механічний апельсин / A Clockwork Orange (1971) 1080p H.265 Ukr/Eng | Sub Eng


Жанр: драма
Країна: Велика Британія



Кінокомпанія: Warner Brothers
Режисер: Стенлі Кубрик
Актори: Малкольм МакДавелл, Варрен Кларк, Майкл Бейтс, Джеймс Маркус, Майкл Тарн, Патрік Меджі

Сюжет:
Режисер знайомить глядача із головним героєм – підлітком на ім’я Алекс (Малькольм МакДавелл), котрий, як на свій вік, є особою агресивною – ґвалтує жінок, грабує будинки та здійснює акти «ультранасилля». У цьому йому допомагає компанія друзів – дивакуватих хлопців, для яких Алекс є беззаперечним лідером. Поруч із цим у свідомості Алекса живе альтер-еґо – підліток захоплюється класичною музикою, зокрема 9-ою симфонією Бетховена.

Одного разу, здійснивши вбивство, Алекс потрапляє до тюрми. Будучи ув’язненим, Алекс починає перейматись власним психічним станом – тюремні пута стають для нього нестерпними. Саме тому хлопець погоджується взяти участь у медичних експериментах, які люб’язно пропонує уряд. Лікування полягає у тому, що медики намагаються виробити у людині (злочинці зокрема) умовний рефлекс на секс та насилля. Таким чином, лише при думці про секс чи насилля, Алекса вражав потужної сили приступ нудоти. Ті ж відчуття хлопець переживав, коли чув улюблену 9-у симфонію Бетховена.


Тривалість: 02:16:36
Якість:
Відео:
кодек: H.265 (HEVC)
розмір кадру: 1920 х 1080
бітрейт: 6 736 кб/с
бітова глибина: 10 біт
Увага! Перед завантаженням переконайтесь, що ваш пристрій відтворення (та/або ПЗ) підтримує H.265 (HEVC)

Аудіо # 1:
мова: українська
переклад: багатоголосий закадровий
кодек: 5.1
бітрейт: 1 510 кб/с
Джерело озвучення:
ТО "Цікава ідея" на замовлення Hurtom.com


Аудіо # 2:
мова: англійська
переклад: оригінал
кодек: 5.1
бітрейт: 1 510 кб/с

Аудіо # 3:
мова: англійська
переклад: оригінал | Commentary by Actor Malcolm McDowell and Film Historian Nick Redman
кодек: 2.0
бітрейт: 192 кб/с

Субтитри:
мова: англійська
тип: програмні (м'які)
формат: *.srt
Info
Код:
General
Unique ID                                : 115835225941707518149111156573347127884 (0x57250D9315EFFCA2BF5BB21614C2224C)
Complete name                            : F:\Video\A Clockwork Orange (1971) 1080p H.265 [UKR_ENG].
Format                                   :
Format version                           : Version 4 / Version 2
File size                                : 9.50 GiB
Duration                                 : 2 h 16 min
Overall bit rate                         : 9 951 kb/s
Movie name                               : A Clockwork Orange (1971)
Encoded date                             : UTC 2018-08-17 07:20:47
Writing application                      : v20.0.0 ('I Am The Sun') 32-bit
Writing library                          : libebml v1.3.5 + v1.4.8
Cover                                    : Yes
Attachments                              : cover.png

Video
ID                                       : 1
Format                                   : HEVC
Format/Info                              : High Efficiency Video Coding
Format profile                           : Main [email protected]@Main
Codec ID                                 : V_MPEGH/ISO/HEVC
Duration                                 : 2 h 16 min
Bit rate                                 : 6 736 kb/s
Width                                    : 1 920 pixels
Height                                   : 1 080 pixels
Display aspect ratio                     : 16:9
Frame rate mode                          : Constant
Frame rate                               : 23.976 (24000/1001) FPS
Color space                              : YUV
Chroma subsampling                       : 4:2:0
Bit depth                                : 10 bits
Bits/(Pixel*Frame)                       : 0.135
Stream size                              : 6.43 GiB (68%)
Writing library                          : x265 2.6+15-57eaef9abfd8:[Windows][MSVC 1912][64 bit] 10bit
Encoding settings                        : cpuid=1050111 / frame-threads=3 / numa-pools=8 / wpp / no-pmode / no-pme / no-psnr / no-ssim / log-level=2 / input-csp=1 / input-res=1920x1080 / interlace=0 / total-frames=196523 / level-idc=0 / high-tier=1 / uhd-bd=0 / ref=4 / no-allow-non-conformance / no-repeat-headers / annexb / no-aud / no-hrd / info / hash=0 / no-temporal-layers / open-gop / min-keyint=23 / keyint=250 / gop-lookahead=0 / bframes=8 / b-adapt=2 / b-pyramid / bframe-bias=0 / rc-lookahead=90 / lookahead-slices=4 / scenecut=40 / no-intra-refresh / ctu=64 / min-cu-size=8 / rect / amp / max-tu-size=32 / tu-inter-depth=2 / tu-intra-depth=2 / limit-tu=4 / rdoq-level=2 / dynamic-rd=0.00 / no-ssim-rd / signhide / no-tskip / nr-intra=0 / nr-inter=0 / no-constrained-intra / no-strong-intra-smoothing / max-merge=3 / limit-refs=2 / limit-modes / me=3 / subme=3 / merange=92 / temporal-mvp / weightp / weightb / no-analyze-src-pics / deblock=3:3 / no-sao / no-sao-non-deblock / rd=6 / no-early-skip / rskip / no-fast-intra / no-tskip-fast / no-cu-lossless / b-intra / no-splitrd-skip / rdpenalty=0 / psy-rd=1.40 / psy-rdoq=1.00 / no-rd-refine / analysis-reuse-mode=0 / no-lossless / cbqpoffs=3 / crqpoffs=3 / rc=crf / crf=18.3 / qcomp=0.60 / qpstep=4 / stats-write=0 / stats-read=0 / ipratio=1.40 / pbratio=1.30 / aq-mode=3 / aq-strength=1.00 / cutree / zone-count=0 / no-strict-cbr / qg-size=32 / no-rc-grain / qpmax=69 / qpmin=0 / no-const-vbv / sar=0 / overscan=0 / videoformat=5 / range=0 / colorprim=2 / transfer=2 / colormatrix=2 / chromaloc=0 / display-window=0 / max-cll=0,0 / min-luma=0 / max-luma=1023 / log2-max-poc-lsb=8 / vui-timing-info / vui-hrd-info / slices=1 / no-opt-qp-pps / no-opt-ref-list-length-pps / no-multi-pass-opt-rps / scenecut-bias=0.05 / no-opt-cu-delta-qp / no-aq-motion / no-hdr / no-hdr-opt / no-dhdr10-opt / analysis-reuse-level=5 / scale-factor=0 / refine-intra=0 / refine-inter=0 / refine-mv=0 / no-limit-sao / ctu-info=0 / no-lowpass-dct / refine-mv-type=0 / copy-pic=1
Default                                  : Yes
Forced                                   : No

Audio #1
ID                                       : 2
Format                                   :
Format/Info                              : Digital Theater Systems
Codec ID                                 : A_DTS
Duration                                 : 2 h 16 min
Bit rate mode                            : Constant
Bit rate                                 : 1 510 kb/s
Channel(s)                               : 6 channels
Channel positions                        : Front: L C R, Side: L R, LFE
Sampling rate                            : 48.0 kHz
Frame rate                               : 93.750 FPS (512 SPF)
Bit depth                                : 24 bits
Compression mode                         : Lossy
Stream size                              : 1.44 GiB (15%)
Title                                    : 5.1 @ 1536 kbps
Language                                 : Ukrainian
Default                                  : Yes
Forced                                   : Yes

Audio #2
ID                                       : 3
Format                                   :
Format/Info                              : Digital Theater Systems
Codec ID                                 : A_DTS
Duration                                 : 2 h 16 min
Bit rate mode                            : Constant
Bit rate                                 : 1 510 kb/s
Channel(s)                               : 6 channels
Channel positions                        : Front: L C R, Side: L R, LFE
Sampling rate                            : 48.0 kHz
Frame rate                               : 93.750 FPS (512 SPF)
Bit depth                                : 16 bits
Compression mode                         : Lossy
Stream size                              : 1.44 GiB (15%)
Title                                    : 5.1 @ 1536 kbps
Language                                 : English
Default                                  : No
Forced                                   : No

Audio #3
ID                                       : 4
Format                                   : AC-3
Format/Info                              : Audio Coding 3
Codec ID                                 : A_AC3
Duration                                 : 2 h 16 min
Bit rate mode                            : Constant
Bit rate                                 : 192 kb/s
Channel(s)                               : 2 channels
Channel positions                        : Front: L R
Sampling rate                            : 48.0 kHz
Frame rate                               : 31.250 FPS (1536 SPF)
Bit depth                                : 16 bits
Compression mode                         : Lossy
Stream size                              : 188 MiB (2%)
Title                                    : 2.0 @ 192 kbps - Commentary by Actor Malcolm McDowell and Film Historian Nick Redman
Language                                 : English
Service kind                             : Complete Main
Default                                  : No
Forced                                   : No

Text
ID                                       : 5
Format                                   : UTF-8
Codec ID                                 : S_TEXT/UTF8
Codec ID/Info                            : UTF-8 Plain Text
Duration                                 : 2 h 14 min
Bit rate                                 : 59 b/s
Count of elements                        : 1655
Stream size                              : 58.8 KiB (0%)
Language                                 : English
Default                                  : No
Forced                                   : No

Menu
00:00:00.000                             : en:Alex and His Droogs
00:02:17.053                             : en:The Old Ultraviolence on a Tramp
00:04:28.017                             : en:Battling Billy Boy
00:07:32.368                             : en:Through the Real Country Dark
00:08:58.454                             : en:Country House
00:13:21.717                             : en:Disciplining Dim
00:16:46.755                             : en:At Home With Ludwig Van
00:20:02.451                             : en:Home Ill; Mr. Deltoid
00:25:47.796                             : en:The Music Shop
00:28:05.308                             : en:Two Ladies
00:29:04.200                             : en:Dissent Among Droogs
00:33:19.247                             : en:A Real Leader
00:36:30.605                             : en:The Cat Lady's House
00:43:32.192                             : en:Now a Murderer
00:47:21.088                             : en:Prsoner #655321
00:52:57.048                             : en:The Chaplain's Remarks
00:55:30.452                             : en:Big Book Fantasies
01:01:19.759                             : en:The Minister's Visit
01:07:20.786                             : en:Arrival at Ludovico
01:11:13.852                             : en:"And Vidi Films I Would."
01:15:33.946                             : en:"I'm Cured. Praise God!"
01:19:16.376                             : en:On Display
01:23:59.242                             : en:The Sickness
01:26:18.882                             : en:Your True Christian
01:28:09.200                             : en:Family Reunion
01:31:53.591                             : en:No Room for Alex
01:35:55.374                             : en:Three Familiar Faces
01:39:30.923                             : en:Droogs With Badges
01:42:23.178                             : en:Return to the Country House
01:49:38.863                             : en:Mr. Alexander's Hospitality
02:01:09.262                             : en:The Hospital
02:04:03.185                             : en:A Slide Show
02:07:37.566                             : en:A Very Special Visitor
02:12:34.029                             : en:"I Was Cured, All Right."
02:13:57.029                             : en:End Credits
Скріншоти




Джерело:
Особиста оцінка: 0 - не дивився
ЗАЛИШАЙТЕСЬ ЯКОМОГА ДОВШЕ НА РОЗДАЧІ!
ЗАВАНТАЖИВ САМ - ДАЙ ЗАВАНТАЖИТИ ІНШИМ


Авторський реліз (завантажувати можна без реєстрації)
 Трекер:    Зареєстрований   

Завантажити / скачати фільм українською



відео для новачків



 Зареєстрований:   2018-08-19 02:13
 Розмір:   9.5 GB 
 Оцінка фільму:   10/10 (Голосів: 7)
   
uaxpasha 
VIP


З нами з: 05.08.12
Востаннє: 18.09.20
Повідомлень: 345

2018-08-19 15:00  
Ого, H.265 а чому так багато важить?
Anonymous 







2018-08-19 16:36  
uaxpasha
Бо 2 дтс доріжки. Сам відеопотік - 6 гб.

vash1 
VIP


З нами з: 16.03.16
Востаннє: 18.09.20
Повідомлень: 263

2018-11-15 11:27  
Це супер!
Ваш часовий пояс: GMT + 2 Години

Нова тема   Відповісти