Супер 8 / Super 8 (2011) 1080p H.265 Ukr/Eng | Sub Ukr/Eng

Нові коментарі

Нова тема   Відповісти
Автор Повідомлення
-Star-Lord- 
VIP


З нами з: 09.08.18
Востаннє: 24.05.19
Повідомлень: 776

2018-08-19 02:04  
Супер 8 / Super 8 (2011) 1080p H.265 Ukr/Eng | Sub Ukr/Eng

Супер 8 / Super 8 (2011) 1080p H.265 Ukr/Eng | Sub Ukr/Eng


Жанр: містика, фантастика, трилер
Країна: США



Кінокомпанія: Paramount Pictures, Amblin Entertainment, Bad Robot
Режисер: Джей Джей Абрамс (J.J. Abrams)
Актори: Джоель Кортні (Joel Courtney), Джессіка Так (Jessica Tuck), Джоель МакКіннон Міллер (Joel McKinnon Miller), Раян Лі (Ryan Lee), Зак Міллс (Zach Mills) та інші.

Сюжет:
Новий проект автора "Загублених" та "Монстро" віддає шану одночасно головному захопленню уфологів та кінофільмам про інопланетян - кілька дітлахів, знімаючи на любительську камеру "Супер-8" шкільний фільм про зомбі вони випадково знімають не лише залізничну катастрофу, свідками якої стають, а й щось незрозуміле, що виривається з дивного вагону. Після цього в їхньому містечку починаються таємничі події, які мають недвозначно позаземну природу.


Тривалість: 01:51:48
Якість:
Відео:
кодек: H.265 (HEVC)
розмір кадру: 1920 х 800
бітрейт: 5 878 кб/с
бітова глибина: 10 біт
Увага! Перед завантаженням переконайтесь, що ваш пристрій відтворення (та/або ПЗ) підтримує H.265 (HEVC)

Аудіо # 1:
мова: українська
переклад: професійний дубльований
кодек: 5.1
бітрейт: 384 кб/с

Аудіо # 2:
мова: англійська
переклад: оригінал
кодек: 5.1
бітрейт: 384 кб/с

Субтитри # 1:
мова: українська
тип: програмні (м'які)
формат: *.srt

Субтитри # 2:
мова: англійська
тип: програмні (м'які)
формат: *.srt
Info
Код:
General
Unique ID                                : 317766207774089043001677681140507449859 (0xEF0F8BA50357A3ADCB30384058319A03)
Complete name                            : F:\Video\Super 8 (2011) 1080p H.265 [UKR_ENG].
Format                                   :
Format version                           : Version 4 / Version 2
File size                                : 5.19 GiB
Duration                                 : 1 h 51 min
Overall bit rate                         : 6 648 kb/s
Movie name                               : Super 8 (2011)
Encoded date                             : UTC 2018-08-15 21:36:29
Writing application                      : v20.0.0 ('I Am The Sun') 32-bit
Writing library                          : libebml v1.3.5 + v1.4.8
Cover                                    : Yes
Attachments                              : Cover.jpg / cover.jpg

Video
ID                                       : 1
Format                                   : HEVC
Format/Info                              : High Efficiency Video Coding
Format profile                           : Main [email protected]@High
Codec ID                                 : V_MPEGH/ISO/HEVC
Duration                                 : 1 h 51 min
Bit rate                                 : 5 878 kb/s
Width                                    : 1 920 pixels
Height                                   : 800 pixels
Display aspect ratio                     : 2.40:1
Frame rate mode                          : Constant
Frame rate                               : 23.976 (24000/1001) FPS
Color space                              : YUV
Chroma subsampling                       : 4:2:0
Bit depth                                : 10 bits
Bits/(Pixel*Frame)                       : 0.160
Stream size                              : 4.59 GiB (88%)
Writing library                          : x265 2.5+31-df2de6ea407d:[Windows][GCC 7.1.0][64 bit] 10bit
Encoding settings                        : cpuid=1050111 / frame-threads=5 / numa-pools=4 / wpp / no-pmode / no-pme / no-psnr / no-ssim / log-level=3 / input-csp=1 / input-res=1920x800 / interlace=0 / total-frames=0 / level-idc=51 / high-tier=1 / uhd-bd=0 / ref=4 / no-allow-non-conformance / no-repeat-headers / annexb / no-aud / no-hrd / info / hash=0 / no-temporal-layers / open-gop / min-keyint=23 / keyint=240 / bframes=10 / b-adapt=2 / b-pyramid / bframe-bias=0 / rc-lookahead=40 / lookahead-slices=5 / scenecut=40 / no-intra-refresh / ctu=64 / min-cu-size=8 / no-rect / no-amp / max-tu-size=32 / tu-inter-depth=3 / tu-intra-depth=3 / limit-tu=0 / rdoq-level=1 / dynamic-rd=0.00 / no-ssim-rd / signhide / no-tskip / nr-intra=0 / nr-inter=0 / no-constrained-intra / strong-intra-smoothing / max-merge=3 / limit-refs=3 / no-limit-modes / me=2 / subme=4 / merange=57 / temporal-mvp / weightp / weightb / no-analyze-src-pics / deblock=-3:-3 / no-sao / no-sao-non-deblock / rd=3 / no-early-skip / rskip / no-fast-intra / no-tskip-fast / no-cu-lossless / no-b-intra / no-splitrd-skip / rdpenalty=0 / psy-rd=2.00 / psy-rdoq=0.00 / no-rd-refine / analysis-reuse-mode=0 / no-lossless / cbqpoffs=0 / crqpoffs=0 / rc=crf / crf=20.0 / qcomp=0.60 / qpstep=4 / stats-write=0 / stats-read=0 / vbv-maxrate=50000 / vbv-bufsize=35714 / vbv-init=0.9 / crf-max=30.0 / crf-min=0.0 / ipratio=1.40 / pbratio=1.30 / aq-mode=1 / aq-strength=1.00 / cutree / zone-count=0 / no-strict-cbr / qg-size=32 / no-rc-grain / qpmax=69 / qpmin=0 / no-const-vbv / sar=1 / overscan=0 / videoformat=5 / range=0 / colorprim=2 / transfer=2 / colormatrix=2 / chromaloc=0 / display-window=0 / max-cll=0,0 / min-luma=0 / max-luma=1023 / log2-max-poc-lsb=8 / vui-timing-info / vui-hrd-info / slices=1 / opt-qp-pps / opt-ref-list-length-pps / no-multi-pass-opt-rps / scenecut-bias=0.05 / no-opt-cu-delta-qp / no-aq-motion / no-hdr / no-hdr-opt / no-dhdr10-opt / analysis-reuse-level=5 / scale-factor=0 / refine-intra=0 / refine-inter=0 / refine-mv=0 / no-limit-sao / ctu-info=0
Language                                 : English
Default                                  : Yes
Forced                                   : No
Color range                              : Limited

Audio #1
ID                                       : 2
Format                                   : AC-3
Format/Info                              : Audio Coding 3
Codec ID                                 : A_AC3
Duration                                 : 1 h 51 min
Bit rate mode                            : Constant
Bit rate                                 : 384 kb/s
Channel(s)                               : 6 channels
Channel positions                        : Front: L C R, Side: L R, LFE
Sampling rate                            : 48.0 kHz
Frame rate                               : 31.250 FPS (1536 SPF)
Bit depth                                : 16 bits
Compression mode                         : Lossy
Stream size                              : 307 MiB (6%)
Title                                    : DUB
Language                                 : Ukrainian
Service kind                             : Complete Main
Default                                  : Yes
Forced                                   : No

Audio #2
ID                                       : 3
Format                                   : AC-3
Format/Info                              : Audio Coding 3
Codec ID                                 : A_AC3
Duration                                 : 1 h 51 min
Bit rate mode                            : Constant
Bit rate                                 : 384 kb/s
Channel(s)                               : 6 channels
Channel positions                        : Front: L C R, Side: L R, LFE
Sampling rate                            : 48.0 kHz
Frame rate                               : 31.250 FPS (1536 SPF)
Bit depth                                : 16 bits
Compression mode                         : Lossy
Stream size                              : 307 MiB (6%)
Title                                    : Original
Language                                 : English
Service kind                             : Complete Main
Default                                  : No
Forced                                   : No

Text #1
ID                                       : 4
Format                                   : UTF-8
Codec ID                                 : S_TEXT/UTF8
Codec ID/Info                            : UTF-8 Plain Text
Duration                                 : 1 h 48 min
Bit rate                                 : 94 b/s
Count of elements                        : 1349
Stream size                              : 75.4 KiB (0%)
Language                                 : Ukrainian
Default                                  : Yes
Forced                                   : No

Text #2
ID                                       : 5
Format                                   : UTF-8
Codec ID                                 : S_TEXT/UTF8
Codec ID/Info                            : UTF-8 Plain Text
Duration                                 : 1 h 48 min
Bit rate                                 : 65 b/s
Count of elements                        : 1461
Stream size                              : 51.8 KiB (0%)
Default                                  : No
Forced                                   : No

Menu
00:00:00.000                             : :Глава 1
00:07:01.504                             : :Глава 2
00:11:33.275                             : :Глава 3
00:19:25.164                             : :Глава 4
00:26:43.518                             : :Глава 5
00:33:36.514                             : :Глава 6
00:40:30.511                             : :Глава 7
00:45:42.156                             : :Глава 8
00:51:57.114                             : :Глава 9
00:56:59.958                             : :Глава 10
01:02:24.365                             : :Глава 11
01:08:12.505                             : :Глава 12
01:13:30.906                             : :Глава 13
01:18:33.875                             : :Глава 14
01:25:31.334                             : :Глава 15
01:30:25.378                             : :Глава 16
01:38:20.352                             : :Глава 17
01:43:37.836                             : :Глава 18
01:51:48.493                             : :Глава 19
Скріншоти




Джерело:
Особиста оцінка: 10 - без зайвих вагань рекомендую всім!
ЗАЛИШАЙТЕСЬ ЯКОМОГА ДОВШЕ НА РОЗДАЧІ!
ЗАВАНТАЖИВ САМ - ДАЙ ЗАВАНТАЖИТИ ІНШИМ


 Трекер:    Зареєстрований   

Завантажити / скачати фільм українською



відео для новачків



 Зареєстрований:   2018-08-19 02:04
 Розмір:   5.19 GB 
 Оцінка фільму:   9/10 (Голосів: 5)
   
Інші релізи
   Супер 8 / Super 8 (2011) AVC Ukr/Eng | Sub Ukr/Eng staf777  4 / 0   2.91 GB   2018-08-19 17:37 
   Супер 8 / Super 8 (2011) 1080p Ukr/Eng | Sub Ukr/Eng staf777  3 / 0   12.2 GB   2018-07-21 22:02 
   Супер 8 / Super 8 (2011) Remux 1080p Ukr/Eng | Sub Ukr/Eng HI-FI SOUND  5 / 0   31.35 GB   2016-08-13 22:38 
   Супер 8 / Super 8 (2011) 720p Ukr/Eng | Sub Ukr/Eng Dim-ON  3 / 0   6.91 GB   2011-11-26 13:27 
   Супер 8 / Super 8 (2011) Ukr/Eng | Sub Ukr/Eng hellforces  8 / 0   2.18 GB   2011-11-23 23:51 
Ваш часовий пояс: GMT + 2 Години

Нова тема   Відповісти