Земля: Один вражаючий день / Earth: One Amazing Day (2017) mini 1080p H.265 Ukr/Eng | sub Eng

Нові коментарі

Нова тема   Відповісти
Автор Повідомлення
-Star-Lord- 
VIP


З нами з: 09.08.18
Востаннє: 17.02.19
Повідомлень: 607

2018-08-18 23:43  
Земля: Один вражаючий день / Earth: One Amazing Day (2017) mini 1080p H.265 Ukr/Eng | sub Eng

Земля: Один вражаючий день / Earth: One Amazing Day (2017) mini 1080p H.265 Ukr/Eng | sub Eng
Офіційний постер з рекламою:


Жанр: документальний
Країна: Велика Британія



Кінокомпанія: Earth Film Productions
Режисер: Річард Дейл, Фань Лісіна, Пітер Веббер
Сюжет:
Один звичайний і вражаючий день з життя різних представників дикої природи: від непримітних комах до царствених хижаків. Чим займаються від світанку до заходу сонця жителі джунглів і льодовиків, морів і пустель? Вони виходять на полювання, борються за виживання, доглядають дитинчат і втягуються в круговерть
дивних пригод.


Тривалість: 01:33:46
Якість:
Відео:
кодек: H.265 (HEVC)
розмір кадру: 1920 х 1080
бітрейт: 4 932 кб/с
бітова глибина: 10 біт
Увага! Перед завантаженням переконайтесь, що ваш пристрій відтворення (та/або ПЗ) підтримує H.265 (HEVC)

Аудіо # 1:
мова: українська
переклад: одноголосий закадровий | Pie Post Production
кодек: 2.0
бітрейт: 192 кб/с

Аудіо # 2:
мова: англійська
переклад: оригінал
кодек: 7.1
бітрейт: 616 кб/с

Субтитри # 1:
мова: англійська
тип: програмні (м'які)
формат: .VobSub

Субтитри # 2:
мова: французька
тип: програмні (м'які)
формат: .VobSub
Info
Код:
General
Unique ID                                : 5644996355315028362955324637197092396 (0x43F2FCEF5091804CA7C1B150D37C62C)
Complete name                            : F:\Video\Earth. One Amazing Day (2017) 1080p H.265 [UKR_ENG].
Format                                   :
Format version                           : Version 4 / Version 2
File size                                : 3.77 GiB
Duration                                 : 1 h 33 min
Overall bit rate                         : 5 750 kb/s
Movie name                               : Earth: One Amazing Day (2017)
Encoded date                             : UTC 2018-08-18 20:02:32
Writing application                      : v20.0.0 ('I Am The Sun') 32-bit
Writing library                          : libebml v1.3.5 + v1.4.8
Attachments                              : poster.jpg

Video
ID                                       : 1
Format                                   : HEVC
Format/Info                              : High Efficiency Video Coding
Format profile                           : Main [email protected]@Main
Codec ID                                 : V_MPEGH/ISO/HEVC
Duration                                 : 1 h 33 min
Bit rate                                 : 4 932 kb/s
Width                                    : 1 920 pixels
Height                                   : 1 080 pixels
Display aspect ratio                     : 16:9
Frame rate mode                          : Constant
Frame rate                               : 23.976 (24000/1001) FPS
Color space                              : YUV
Chroma subsampling                       : 4:2:0
Bit depth                                : 10 bits
Bits/(Pixel*Frame)                       : 0.099
Stream size                              : 3.23 GiB (86%)
Writing library                          : x265 2.7+22-946f82dbf4e8:[Windows][GCC 7.3.0][64 bit] 10bit
Encoding settings                        : cpuid=1173503 / frame-threads=3 / numa-pools=8 / wpp / no-pmode / no-pme / no-psnr / no-ssim / log-level=2 / input-csp=1 / input-res=1920x1080 / interlace=0 / total-frames=134905 / level-idc=0 / high-tier=1 / uhd-bd=0 / ref=4 / no-allow-non-conformance / no-repeat-headers / annexb / no-aud / no-hrd / info / hash=0 / no-temporal-layers / open-gop / min-keyint=23 / keyint=250 / gop-lookahead=0 / bframes=4 / b-adapt=2 / b-pyramid / bframe-bias=0 / rc-lookahead=25 / lookahead-slices=4 / scenecut=40 / radl=0 / no-intra-refresh / ctu=64 / min-cu-size=8 / rect / no-amp / max-tu-size=32 / tu-inter-depth=1 / tu-intra-depth=1 / limit-tu=0 / rdoq-level=2 / dynamic-rd=0.00 / no-ssim-rd / signhide / no-tskip / nr-intra=0 / nr-inter=0 / no-constrained-intra / strong-intra-smoothing / max-merge=3 / limit-refs=3 / limit-modes / me=3 / subme=3 / merange=57 / temporal-mvp / weightp / no-weightb / no-analyze-src-pics / deblock=0:0 / sao / no-sao-non-deblock / rd=4 / no-early-skip / rskip / no-fast-intra / no-tskip-fast / no-cu-lossless / no-b-intra / no-splitrd-skip / rdpenalty=0 / psy-rd=2.00 / psy-rdoq=1.00 / no-rd-refine / no-lossless / cbqpoffs=0 / crqpoffs=0 / rc=abr / bitrate=4931 / qcomp=0.60 / qpstep=4 / stats-write=0 / stats-read=2 / cplxblur=20.0 / qblur=0.5 / ipratio=1.40 / pbratio=1.30 / aq-mode=3 / aq-strength=1.00 / cutree / zone-count=0 / no-strict-cbr / qg-size=32 / no-rc-grain / qpmax=69 / qpmin=0 / no-const-vbv / sar=0 / overscan=0 / videoformat=5 / range=0 / colorprim=2 / transfer=2 / colormatrix=2 / chromaloc=0 / display-window=0 / max-cll=0,0 / min-luma=0 / max-luma=1023 / log2-max-poc-lsb=8 / vui-timing-info / vui-hrd-info / slices=1 / no-opt-qp-pps / no-opt-ref-list-length-pps / multi-pass-opt-rps / scenecut-bias=0.05 / no-opt-cu-delta-qp / aq-motion / no-hdr / no-hdr-opt / no-dhdr10-opt / no-idr-recovery-sei / analysis-reuse-level=5 / scale-factor=0 / refine-intra=0 / refine-inter=0 / refine-mv=0 / no-limit-sao / ctu-info=0 / no-lowpass-dct / refine-mv-type=0 / copy-pic=1 / max-ausize-factor=1.0 / no-dynamic-refine
Default                                  : Yes
Forced                                   : No

Audio #1
ID                                       : 2
Format                                   : AC-3
Format/Info                              : Audio Coding 3
Codec ID                                 : A_AC3
Duration                                 : 1 h 33 min
Bit rate mode                            : Constant
Bit rate                                 : 192 kb/s
Channel(s)                               : 2 channels
Channel positions                        : Front: L R
Sampling rate                            : 48.0 kHz
Frame rate                               : 31.250 FPS (1536 SPF)
Bit depth                                : 16 bits
Compression mode                         : Lossy
Delay relative to video                  : 2 s 16 ms
Stream size                              : 129 MiB (3%)
Language                                 : Ukrainian
Service kind                             : Complete Main
Default                                  : Yes
Forced                                   : No

Audio #2
ID                                       : 3
Format                                   :
Format/Info                              : Advanced Audio Codec
Format profile                           : LC
Codec ID                                 : A_AAC-2
Duration                                 : 1 h 33 min
Bit rate                                 : 616 kb/s
Channel(s)                               : 8 channels
Channel positions                        : Front: L C R, Side: L R, Back: L R, LFE
Sampling rate                            : 48.0 kHz
Frame rate                               : 46.875 FPS (1024 SPF)
Compression mode                         : Lossy
Delay relative to video                  : 20 ms
Stream size                              : 413 MiB (11%)
Language                                 : English
Default                                  : No
Forced                                   : No

Text #1
ID                                       : 4
Format                                   : VobSub
Muxing mode                              : zlib
Codec ID                                 : S_VOBSUB
Codec ID/Info                            : Picture based subtitle format used on DVDs
Duration                                 : 1 h 27 min
Bit rate                                 : 7 094 b/s
Count of elements                        : 590
Stream size                              : 4.44 MiB (0%)
Language                                 : English
Default                                  : No
Forced                                   : No

Text #2
ID                                       : 5
Format                                   : VobSub
Muxing mode                              : zlib
Codec ID                                 : S_VOBSUB
Codec ID/Info                            : Picture based subtitle format used on DVDs
Duration                                 : 1 h 28 min
Bit rate                                 : 6 335 b/s
Count of elements                        : 453
Stream size                              : 4.02 MiB (0%)
Language                                 : French
Default                                  : No
Forced                                   : No

Menu
00:00:00.000                             : en:Chapter 01
00:08:41.020                             : en:Chapter 02
00:16:49.675                             : en:Chapter 03
00:22:36.480                             : en:Chapter 04
00:29:07.162                             : en:Chapter 05
00:33:44.605                             : en:Chapter 06
00:36:22.305                             : en:Chapter 07
00:43:49.251                             : en:Chapter 08
00:47:49.116                             : en:Chapter 09
00:51:56.905                             : en:Chapter 10
00:57:52.177                             : en:Chapter 11
01:02:41.841                             : en:Chapter 12
01:06:04.710                             : en:Chapter 13
01:12:12.661                             : en:Chapter 14
01:16:34.464                             : en:Chapter 15
01:22:15.180                             : en:Chapter 16
Скріншоти



Підтримати купівлю інших фільмів можна тут.


Джерело:
Особиста оцінка: 0 - не дивився



ЗАЛИШАЙТЕСЬ ЯКОМОГА ДОВШЕ НА РОЗДАЧІ!
ЗАВАНТАЖИВ САМ - ДАЙ ЗАВАНТАЖИТИ ІНШИМ


 Трекер:    Зареєстрований   

Завантажити / скачати фільм українською



відео для новачків



 Зареєстрований:   2018-08-18 23:43
 Розмір:   3.77 GB 
 Оцінка фільму:   10/10 (Голосів: 5)
   
-_-В_E_N_D_Е_R-_- 
Забанено
Забанено


З нами з: 11.07.18
Востаннє: 23.08.18
Повідомлень: 530

2018-08-18 23:55  
Тьху! де дівся бдріп 720p?
Electroz 
Відео Гуртом - підтримка та поширення
Відео Гуртом - підтримка та поширення


З нами з: 18.09.14
Востаннє: 17.02.19
Повідомлень: 3214

2018-08-18 23:59  
-_-В_E_N_D_Е_R-_-
https://toloka.to/t94359#1023658

-Star-Lord- 
VIP


З нами з: 09.08.18
Востаннє: 17.02.19
Повідомлень: 607

2018-08-18 23:59  
-_-В_E_N_D_Е_R-_-
Звідки мені знати? Я викладаю тільки в h.265 та 1080p

Anоnymous 
Попереджень: 1
Попереджень: 1 


З нами з: 25.08.18
Востаннє: 16.02.19
Повідомлень: 546

2018-09-18 12:51  
-Star-Lord- написано:
Frame rate                               : 23.976 (24000/1001) FPS

Еееееееееееее......................ти взяв звук від відео з 24.000 фпс і приліпив сюди?.....молодець......
А Ви, модератори, відчепилися краще б від моїх релізі і застосовували свої знання та вміння там де треба.............!!!!!

-Star-Lord- 
VIP


З нами з: 09.08.18
Востаннє: 17.02.19
Повідомлень: 607

2018-09-18 13:37  
Anоnymous
А якщо я скажу, що змінив бітрейт доріжки до 23.976 фпс?

Додано через 22 секунди:

Як тобі таке?

Anоnymous 
Попереджень: 1
Попереджень: 1 


З нами з: 25.08.18
Востаннє: 16.02.19
Повідомлень: 546

2018-09-18 13:43  
-Star-Lord- написано:
А якщо я скажу, що змінив бітрейт доріжки до 23.976 фпс?

Кажу ж Вам модератори застосовуйте свої знання та вміння до користувачів яким це дійсно потрібно.

Тобто ти її ще раз пережав....коли можна було взяти оригінал тієї доріжки і зробити її заново......

ExorcistZp 
Новенький


З нами з: 23.09.14
Востаннє: 17.02.19
Повідомлень: 24

2019-01-15 02:37  
Неперевершена історія довжиною в день.
Поки дивилась, мені чомусь згадалось біблійне створення землі... Happy І був день п'ятий, і весь світ наповнився життям. Усіма, хто повзає, усіма, хто скаче, хто ходить по цій землі. )))
Я не могла відірватися від споглядання просто приголомшливої краси лісу, піщаних дюн, крижаного океану... Від народження хмар, від північного сяйва, від сніга, що тане... Я щиро всім серцем вболівала за дитинча зебри, яке спочатку ледве не втопилося, а потім ледве не стало здобиччю для гепарда... Я реготала до гикавки з того, як бурий мішка терся біля дерева, наче танцював ламбаду, а потім пукнув на прощання... Або коли побачила реального Бліца зі "Звірополісу", як він хотів собі дівчину, та поки до неї плентався, вона вже народити встигла. Милувалася, як літали скати на сході сонця, ніби такі дивні птахи... на малюка панди, який неповороткий і пухкенький... або як комашки-одноденки мільйонами піднімаються в небо... щоб до вечора все встигнути і поступитися місцем послідовникам
Мені не було нудно і не було багато. Я дивилась із задоволенням.
Варто розплющити очі і ми побачимо магію, що нас оточує. Неймовірне у повсякденні. (с)

Ваш часовий пояс: GMT + 2 Години

Нова тема   Відповісти