Термінатор: Хроніки Сари Коннор (Сезон 1) / Terminator: The Sarah Connor Chronicles (Season 1) (2008) AVC Ukr/Eng | Sub Eng

Нові коментарі

Нова тема   Відповісти
Автор Повідомлення
staf777 
Відео Гуртом - підтримка та поширення
Відео Гуртом - підтримка та поширення


З нами з: 16.11.16
Востаннє: 22.08.19
Повідомлень: 2719

2018-08-18 23:12  
Термінатор: Хроніки Сари Коннор (Сезон 1) / Terminator: The Sarah Connor Chronicles (Season 1) (2008) AVC Ukr/Eng | Sub Eng

Термінатор: Хроніки Сари Коннор (Сезон 1) / Terminator: The Sarah Connor Chronicles (Season 1) (2008) AVC Ukr/Eng | Sub Eng


Жанр: фантастика
Країна: США


Кінокомпанія / телеканал: FOX
Режисер: Джош Фрідман, Девід Наттер, Джеффрі Хант, Чарльз Бісон та інші
Актори/ролі озвучують: Ліна Хіді (Lena Heady), Томас Деккер (Thomas Dekker), Саммер Глау (Summer Glau), Річард Ті Джонс (Richard T. Jones), Браян Остін Грін (Brian Austin Green), Гарет Ділахант (Garret Dillahunt), Ширлі Менсон (Shirley Manson) та інші

Сюжет:
У 1997 році Джон та Сара, знищивши Т-1000, знищують також чіп та руку першого термінатор. Їх захисник вимагає також свого знищення, щоб уникнути використання його технологій для створення Скайнет. Сара та Джон тепер розшукуються, як небезпечні злочинці. Але і їм самим слід остерігатися можливого повернення нових незваних гостей з майбутнього.
Але яким би прикрим не був цей факт, вони лише відтягли Судний День з 1997 на 2011 рік.
Термінатори повертаються !!!


Тривалість: 1 серія: 45:00 (цілком серій: 9)
Перелік серій
01. Перший фільм
02. Пізнай себе
03. Турок
04. Важкий метал
05. Хід королевою
06. Підземелля та дракони
07. Рука демона
08. Мозок робота
09. Що він побачив
Якість: AVC
Відео:
кодек:
розмір кадру: 1080 x 608
бітрейт: ~ 2199 кб/с

Аудіо # 1:
мова: українська
переклад: багатоголосий закадровий
кодек: MP3
бітрейт: 128 кб/с

Аудіо # 2:
мова: англійська
переклад: оригінал
кодек: 5.1
бітрейт: 384 кб/с

Субтитри:
мова: англійська
тип: програмні (м'які)
формат: *.
Скріншоти



MI
General
Unique ID : 307873098774892425071726758982905022396 (0xE79E33B648BE4F74CC022DDCB5BCC7BC)
Complete name : H:\» Українське озвучення » Телесеріали\Фантастика\Terminator - The Sarah Connor Chronicles [2008] AVC [Ukr,Eng sub.Eng][Hurtom]\01.Pilot.
Format :
Format version : Version 4 / Version 2
File size : 906 MiB
Duration : 46 min 39 s
Overall bit rate : 2 714 kb/s
Movie name : 01.Pilot
Encoded date : UTC 2018-08-18 15:19:57 / UTC
Writing application : v24.0.0 ('Beyond The Pale') 64-bit
Writing library : libebml v1.3.6 + v1.4.9 / Lavf55.12.0
Cover : Yes
Attachments : Cover1.jpg

Video
ID : 1
Format : AVC
Format/Info : Advanced Video Codec
Format profile : [email protected]
Format settings : CABAC / 12 Ref Frames
Format settings, CABAC : Yes
Format settings, ReFrames : 12 frames
Codec ID : V_MPEG4/ISO/AVC
Duration : 46 min 39 s
Bit rate : 2 199 kb/s
Width : 1 080 pixels
Height : 608 pixels
Display aspect ratio : 16:9
Frame rate mode : Constant
Frame rate : 23.976 (24000/1001) FPS
Color space : YUV
Chroma subsampling : 4:2:0
Bit depth : 8 bits
Scan type : Progressive
Bits/(Pixel*Frame) : 0.140
Stream size : 717 MiB (79%)
Title : MPEG-4, 1080x608, 23.976 fps ~2199 kbps
Writing library : core 142 r2479 dd79a61
Encoding settings : cabac=1 / ref=12 / deblock=1:-2:-2 / analyse=0x3:0x133 / me=umh / subme=11 / psy=1 / psy_rd=1.00:0.10 / mixed_ref=1 / me_range=32 / chroma_me=1 / trellis=2 / 8x8dct=1 / cqm=0 / deadzone=21,11 / fast_pskip=0 / chroma_qp_offset=-3 / threads=6 / lookahead_threads=1 / sliced_threads=0 / nr=0 / decimate=1 / interlaced=0 / bluray_compat=0 / constrained_intra=0 / bframes=16 / b_pyramid=2 / b_adapt=2 / b_bias=0 / direct=3 / weightb=1 / open_gop=0 / weightp=2 / keyint=240 / keyint_min=24 / scenecut=40 / intra_refresh=0 / rc_lookahead=60 / rc=2pass / mbtree=0 / bitrate=2199 / ratetol=1.0 / qcomp=0.60 / qpmin=0 / qpmax=69 / qpstep=4 / cplxblur=20.0 / qblur=0.5 / vbv_maxrate=62500 / vbv_bufsize=78125 / nal_hrd=none / filler=0 / ip_ratio=1.40 / pb_ratio=1.30 / aq=1:1.00
Language : English
Default : Yes
Forced : No
Color range : Limited
Color primaries : BT.709
Transfer characteristics : BT.709
Matrix coefficients : BT.709
Statistics Tags Issue : v24.0.0 ('Beyond The Pale') 64-bit 2018-08-18 15:19:57 / v24.0.0 ('Beyond The Pale') 64-bit 2018-08-18 15:19:57 / UTC
FromStats_BitRate : 2198822
FromStats_Duration : 00:46:39.547000000
FromStats_FrameCount : 67122
FromStats_StreamSize : 769463324

Audio #1
ID : 2
Format : MPEG Audio
Format version : Version 1
Format profile : Layer 3
Codec ID : A_MPEG/L3
Codec ID/Hint : MP3
Duration : 46 min 39 s
Bit rate mode : Constant
Bit rate : 128 kb/s
Channel(s) : 2 channels
Sampling rate : 44.1 kHz
Compression mode : Lossy
Delay relative to video : -83 ms
Stream size : 42.7 MiB (5%)
Title : [UA-MVO-ICTV]
Language : English
Default : Yes
Forced : Yes
Statistics Tags Issue : v24.0.0 ('Beyond The Pale') 64-bit 2018-08-18 15:19:57 / v24.0.0 ('Beyond The Pale') 64-bit 2018-08-18 15:19:57 / UTC
FromStats_BitRate : 127999
FromStats_Duration : 00:46:39.517000000
FromStats_FrameCount : 107169
FromStats_StreamSize : 44792268

Audio #2
ID : 3
Format : AC-3
Format/Info : Audio Coding 3
Codec ID : A_AC3
Duration : 46 min 39 s
Bit rate mode : Constant
Bit rate : 384 kb/s
Channel(s) : 6 channels
Channel positions : Front: L C R, Side: L R, LFE
Sampling rate : 48.0 kHz
Frame rate : 31.250 FPS (1536 SPF)
Bit depth : 16 bits
Compression mode : Lossy
Delay relative to video : -5 ms
Stream size : 128 MiB (14%)
Title : 48 KHz, , 6 ch ~384 Kbps - Original
Language : English
Service kind : Complete Main
Default : No
Forced : No
Statistics Tags Issue : v24.0.0 ('Beyond The Pale') 64-bit 2018-08-18 15:19:57 / v24.0.0 ('Beyond The Pale') 64-bit 2018-08-18 15:19:57 / UTC
FromStats_BitRate : 384000
FromStats_Duration : 00:46:39.392000000
FromStats_FrameCount : 87481
FromStats_StreamSize : 134370816

Text
ID : 4
Format :
Codec ID : S_TEXT/
Codec ID/Info : Advanced Sub Station Alpha
Compression mode : Lossless
Language : English
Default : No
Forced : No
Statistics Tags Issue : v24.0.0 ('Beyond The Pale') 64-bit 2018-08-18 15:19:57 / v24.0.0 ('Beyond The Pale') 64-bit 2018-08-18 15:19:57 / UTC
FromStats_BitRate : 71
FromStats_Duration : 00:45:39.118000000
FromStats_FrameCount : 421
FromStats_StreamSize : 24590
Джерело: &
Особиста оцінка: 8 - мені сподобалося


Бронзовий реліз (на рейтинг впливає 75% завантаженого)
 Трекер:    Зареєстрований   

Завантажити / скачати серіал українською



відео для новачків



 Зареєстрований:   2018-08-18 23:12
 Розмір:   7.45 GB 
 Оцінка серіалу:   10/10 (Голосів: 8)
   
Ваш часовий пояс: GMT + 2 Години

Нова тема   Відповісти