Супер 8 / Super 8 (2011) AVC Ukr/Eng | Sub Ukr/Eng

Нові коментарі

Нова тема   Відповісти
Автор Повідомлення
staf777 
Відео Гуртом - підтримка та поширення
Відео Гуртом - підтримка та поширення


З нами з: 16.11.16
Востаннє: 25.05.19
Повідомлень: 2382

2018-08-18 17:54  
Супер 8 / Super 8 (2011) AVC Ukr/Eng | Sub Ukr/Eng

Супер 8 / Super 8 (2011) AVC Ukr/Eng | Sub Ukr/Eng


Жанр: екшн, фантастика, детектив
Країна: США



Кінокомпанія: Paramount Pictures, Amblin Entertainment, Bad Robot
Режисер: Джей Джей Абрамс
Актори: Джоель Кортні, Джессіка Так, Джоель МакКіннон Міллер, Раян Лі, Зак Міллс

Сюжет:
Влітку 1979 року кілька підлітків з маленького містечка, які знімали аматорський фільм на камеру «Супер 8», стали свідками залізничної катастрофи. І незабаром вони починають підозрювати, що це не було просто нещасним випадком. Дивні зникнення та незрозумілі події починають відбуватися в містечку, і місцевий шериф намагається розгадати їх таємницю - щось куди більш жахливе, ніж всі могли собі уявити.


Тривалість: 01:51:48
Якість: AVC
Відео:
кодек:
розмір кадру: 1024x426
бітрейт: 2826 кб/с

Аудіо # 1:
мова: українська
переклад: професійний дубльований
кодек: 5.1
бітрейт: 448 кб/с

Аудіо # 2:
мова: англійська
переклад: оригінал
кодек: 5.1
бітрейт: 448 кб/с

Субтитри # 1:
мова: українська
тип: програмні (м'які)
формат: *.srt

Субтитри # 2:
мова: англійська
тип: програмні (м'які)
формат: *.srt
Info
General
Unique ID : 225599271666640195086378930978703764969 (0xA9B8D6DAA0585653E87796C04B7F6DE9)
Complete name : H:\AVC\ Super 8 (2011) AVC [UKR_ENG] [Hurtom].
Format :
Format version : Version 4 / Version 2
File size : 2.91 GiB
Duration : 1 h 51 min
Overall bit rate : 3 724 kb/s
Movie name : Super 8 (2011) AVC [UKR_ENG] [Hurtom]
Encoded date : UTC 2018-08-19 13:56:01
Writing application : v24.0.0 ('Beyond The Pale') 64-bit
Writing library : libebml v1.3.6 + v1.4.9
Cover : Yes
Attachments : cover.jpg

Video
ID : 1
Format : AVC
Format/Info : Advanced Video Codec
Format profile : [email protected]
Format settings : CABAC / 9 Ref Frames
Format settings, CABAC : Yes
Format settings, ReFrames : 9 frames
Codec ID : V_MPEG4/ISO/AVC
Duration : 1 h 51 min
Bit rate : 2 826 kb/s
Width : 1 024 pixels
Height : 426 pixels
Display aspect ratio : 2.40:1
Frame rate mode : Constant
Frame rate : 23.976 (24000/1001) FPS
Color space : YUV
Chroma subsampling : 4:2:0
Bit depth : 8 bits
Scan type : Progressive
Bits/(Pixel*Frame) : 0.270
Stream size : 2.21 GiB (76%)
Writing library : core 144 r2525 40bb568
Encoding settings : cabac=1 / ref=9 / deblock=1:-3:-3 / analyse=0x3:0x113 / me=umh / subme=11 / psy=1 / psy_rd=1.00:0.20 / mixed_ref=1 / me_range=48 / chroma_me=0 / trellis=2 / 8x8dct=1 / cqm=0 / deadzone=21,11 / fast_pskip=0 / chroma_qp_offset=-3 / threads=6 / lookahead_threads=1 / sliced_threads=0 / nr=0 / decimate=0 / interlaced=0 / bluray_compat=0 / constrained_intra=0 / bframes=9 / b_pyramid=2 / b_adapt=2 / b_bias=0 / direct=3 / weightb=1 / open_gop=0 / weightp=2 / keyint=240 / keyint_min=23 / scenecut=40 / intra_refresh=0 / rc_lookahead=40 / rc=2pass / mbtree=0 / bitrate=2826 / ratetol=1.0 / qcomp=0.60 / qpmin=0 / qpmax=69 / qpstep=4 / cplxblur=20.0 / qblur=0.5 / vbv_maxrate=14000 / vbv_bufsize=14000 / nal_hrd=none / filler=0 / ip_ratio=1.40 / pb_ratio=1.30 / aq=1:1.00
Language : English
Default : Yes
Forced : No

Audio #1
ID : 2
Format : AC-3
Format/Info : Audio Coding 3
Codec ID : A_AC3
Duration : 1 h 51 min
Bit rate mode : Constant
Bit rate : 448 kb/s
Channel(s) : 6 channels
Channel positions : Front: L C R, Side: L R, LFE
Sampling rate : 48.0 kHz
Frame rate : 31.250 FPS (1536 SPF)
Bit depth : 16 bits
Compression mode : Lossy
Stream size : 358 MiB (12%)
Title : [UA-DUB]
Language : Ukrainian
Service kind : Complete Main
Default : Yes
Forced : Yes

Audio #2
ID : 3
Format : AC-3
Format/Info : Audio Coding 3
Codec ID : A_AC3
Duration : 1 h 51 min
Bit rate mode : Constant
Bit rate : 448 kb/s
Channel(s) : 6 channels
Channel positions : Front: L C R, Side: L R, LFE
Sampling rate : 48.0 kHz
Frame rate : 31.250 FPS (1536 SPF)
Bit depth : 16 bits
Compression mode : Lossy
Stream size : 358 MiB (12%)
Language : English
Service kind : Complete Main
Default : No
Forced : No

Text #1
ID : 4
Format : UTF-8
Codec ID : S_TEXT/UTF8
Codec ID/Info : UTF-8 Plain Text
Duration : 1 h 50 min
Bit rate : 84 b/s
Count of elements : 1469
Stream size : 68.2 KiB (0%)
Language : Ukrainian
Default : No
Forced : No

Text #2
ID : 5
Format : UTF-8
Codec ID : S_TEXT/UTF8
Codec ID/Info : UTF-8 Plain Text
Duration : 1 h 48 min
Bit rate : 65 b/s
Count of elements : 1461
Stream size : 51.8 KiB (0%)
Language : English
Default : No
Forced : No
Скріншоти





Джерело: &
Особиста оцінка: 0 - не дивився


 Трекер:    Зареєстрований   

Завантажити / скачати фільм українською



відео для новачків



 Зареєстрований:   2018-08-19 17:37
 Розмір:   2.91 GB 
 Оцінка фільму:   9.3/10 (Голосів: 15)
   
Інші релізи
   Супер 8 / Super 8 (2011) 1080p H.265 Ukr/Eng | Sub Ukr/Eng -Star-Lord-  4 / 0   5.19 GB   2018-08-19 02:04 
   Супер 8 / Super 8 (2011) 1080p Ukr/Eng | Sub Ukr/Eng staf777  3 / 0   12.2 GB   2018-07-21 22:02 
   Супер 8 / Super 8 (2011) Remux 1080p Ukr/Eng | Sub Ukr/Eng HI-FI SOUND  5 / 0   31.35 GB   2016-08-13 22:38 
   Супер 8 / Super 8 (2011) 720p Ukr/Eng | Sub Ukr/Eng Dim-ON  3 / 0   6.91 GB   2011-11-26 13:27 
   Супер 8 / Super 8 (2011) Ukr/Eng | Sub Ukr/Eng hellforces  7 / 0   2.18 GB   2011-11-23 23:51 
Usefur 
Новенький


З нами з: 11.05.10
Востаннє: 30.03.19
Повідомлень: 4

2018-08-18 18:29  
Щойно по ICTV йшов, дякую автору!
bot 
робот


З нами з: 30.09.07
Востаннє: 26.05.05
Повідомлень: 21385

2018-08-19 17:37  
Тему перенесено з Анонси релізів до форуму Фільми


staf777

Ваш часовий пояс: GMT + 2 Години

Нова тема   Відповісти