Cімпсони (Сезон 29) / The Simpsons (Season 29) (2017-2018) 1080p

Нові коментарі

Нова тема   Відповісти
Автор Повідомлення
dima_2004 
Свій


З нами з: 30.05.16
Востаннє: 05.04.21
Повідомлень: 83

2018-08-18 15:24  
Cімпсони (Сезон 29) / The Simpsons (Season 29) (2017-2018) 1080p

Cімпсони (Сезон 29) / The Simpsons (Season 29) (2017-2018) 1080p


Жанр: анімаційний ситком, комедія, пародія
Країна: США



Кінокомпанія: Gracie Films, 20th Century Fox Television
Режисер: Мет Ґрейнінґ (Matt Groening)
Актори: Ден Касталанетта (Гомер), Джулі Кавнер (Мардж), Ненсі Картрайт (Барт), Ядлі Сміт (Ліса), Гаррі Ширер (Нед Фландерс і Монтгомері Бернз) та інші.

Сюжет:
«Сімпсони» (англ. The Simpsons) — американський анімаційний серіал, створений Меттом Ґрейнінґом для компанії Fox. Мультсеріал — сатирична пародія на стиль життя середнього класу США, втілена в сім'ї Сімпсонів, яка складається з Гомера, Мардж, Барта, Ліси та Меґґі. Більшість подій відбуваються у вигаданому містечку Спрингфілді (англ. Springfield). Шоу висміює численні аспекти життя людей, американську культуру, суспільство, навіть американське телебачення.
«Сімпсони» є найдовшим анімаційний серіалом в історії американського телебачення: понад 600 епізодів, які, у свою чергу, об'єднані у 29 сезонів приблизно по 20 серій у кожному. Дебютував 17 грудня 1989 року на телеканалі FOX у Шоу Трейсі Ульман. Виробник: продакшн-компанія «Gracie Films». Автор ідеї: Метт Ґрейнінґ.
Ґрюнінґ задумав «Сімпсонів» незадовго до початку співпраці з Джеймсом Бруксом (англ. James L. Brooks). Він зробив кілька короткометражних сюжетів із життя маргінальної родини, обравши для героїв імена членів своєї власної сім'ї, а своє замінивши на «Барт». Короткометражні фрагменти стали частиною «Шоу Трейсі Ульман», прем'єра відбулася 19 квітня 1987. Після трьох сезонів в ефірі програма розвинулася до півгодинного шоу класу «прайм-тайм».
Сімпсони були одним із перших успішних проектів компанії «Фокс», здобувши кілька видатних нагород. У 1998 році, визначаючи найбільші досягнення 20-го століття в мистецтві та індустрії розваг, часопис «Тайм» назвав «Сімспсонів» найкращим телесеріалом сторіччя. 14 січня 2000 року «Сімпсонів» було нагороджено зіркою на Алеї Слави в Голлівуді. Це — найтриваліший серед усіх американських комедійних і анімаційних телесеріалів. «Сімпсони» справляли і справляють потужний вплив на сучасну поп-культуру. Цитати з серіалу увійшли до багатьох мов світу. Роздратований вигук Гомера «Дов!» (англ. D'oh!) уже внесено до словника англійської мови. Цитати і теми серіалу вплинули на багато інших анімаційних комедій у кінці дев'яностих.


Тривалість: 1 серія: 22:00 (цілком серій: 21)
Перелік серій
01. The Serfsons
02. Springfield Splendor
03. Whistler's Father
04. Treehouse of Horror XXVIII
05. Grampy Can Ya Hear Me
06. The Old Blue Mayor She Ain't What She Used to Be
07. Singin' in the Lane
08. Mr. Lisa's Opus
09. Gone Boy
10. Haw-Haw Land
11. Frink Gets Testy
12. Homer Is Where the Art Isn't
13. 3 Scenes Plus a Tag from a Marriage
14. Fears of a Clown
15. No Good Read Goes Unpunished
16. King Leer
17. Lisa Gets the Blues
18. Forgive and Regret
19. Left Behind
20. Throw Grampa from the Dane
21. Flanders' Ladder
Якість: 1080p
Відео:
кодек:
розмір кадру: 1920 х 1080
бітрейт: ~ 3000 кб/с

Аудіо:
мова: українська
переклад: професійний дубльований
кодек: 2.0
бітрейт: 192 кб/с

Переклад і озвучення виконано:
студією "Так Треба Продакшн" на замовлення телеканалу
Інформація про дубляж:

Ролі дублювали:
Євген Малуха — Гомер Сімпсон, Мер Квімбі, Завгосп Віллі, Продавець коміксів, Доктор Нік, Ленні Леонард, Професор Фрінк та інші
Ганна Левченко — Барт Сімпсон та інші
Ірина Дорошенко — Мардж Сімпсон, Ліса Сімпсон та інші
Юрій Коваленко — Абрахам Сімпсон (дідусь), Нед Фландерс, Барні Ґамбл, Доктор Гібберт, Апу Нахасапімапетілон, Мо Сізлак, Отець Лавджой, Шеф Віґґам, Монтґомері Бернс, Вейлон Смізерс, Клітус, Карл, Кент Брокман, Сеймур Скіннер, Клоун Красті та інші
Info
General
Unique ID : 239134635237371215852446827288140691838 (0xB3E7A7CD2B358F148007722005C3B97E)
Complete name : D:\DIMA\FILMS\The Simpsons (Season 29) (2017) 1080p Ukr\[29x01].
Format :
Format version : Version 2
File size : 523 MiB
Duration : 21mn 39s
Overall bit rate : 3 373 Kbps
Encoded date : UTC 2018-06-29 18:34:34
Writing application : v7.8.0 ('River Man') 32bit built on Apr 3 2015 12:11:22
Writing library : libebml v1.3.1 + v1.4.2

Video
ID : 1
Format : AVC
Format/Info : Advanced Video Codec
Format profile : [email protected]
Format settings, CABAC : Yes
Format settings, ReFrames : 4 frames
Codec ID : V_MPEG4/ISO/AVC
Duration : 21mn 39s
Bit rate : 3 114 Kbps
Width : 1 920 pixels
Height : 1 080 pixels
Display aspect ratio : 16:9
Frame rate mode : Constant
Frame rate : 23.976 fps
Color space : YUV
Chroma subsampling : 4:2:0
Bit depth : 8 bits
Scan type : Progressive
Bits/(Pixel*Frame) : 0.063
Stream size : 482 MiB (92%)
Writing library : core 132
Encoding settings : cabac=1 / ref=1 / deblock=1:0:0 / analyse=0x1:0x1 / me=dia / subme=1 / psy=1 / psy_rd=1.00:0.00 / mixed_ref=0 / me_range=16 / chroma_me=1 / trellis=0 / 8x8dct=0 / cqm=0 / deadzone=21,11 / fast_pskip=1 / chroma_qp_offset=0 / threads=12 / lookahead_threads=2 / sliced_threads=0 / nr=0 / decimate=1 / interlaced=0 / bluray_compat=0 / constrained_intra=0 / bframes=3 / b_pyramid=2 / b_adapt=1 / b_bias=0 / direct=1 / weightb=1 / open_gop=0 / weightp=1 / keyint=24 / keyint_min=2 / scenecut=40 / intra_refresh=0 / rc=crf / mbtree=0 / crf=27.0 / qcomp=0.60 / qpmin=0 / qpmax=69 / qpstep=4 / ip_ratio=1.40 / pb_ratio=1.30 / aq=1:1.00
Default : Yes
Forced : No

Audio
ID : 2
Format : AC-3
Format/Info : Audio Coding 3
Mode extension : CM (complete main)
Format settings, Endianness : Big
Codec ID : A_AC3
Duration : 21mn 39s
Bit rate mode : Constant
Bit rate : 192 Kbps
Channel(s) : 2 channels
Channel positions : Front: L R
Sampling rate : 44.1 KHz
Bit depth : 16 bits
Compression mode : Lossy
Stream size : 29.7 MiB (6%)
Default : Yes
Forced : No
Скріншоти



Джерело: nnmclub
Особиста оцінка: 10 - без зайвих вагань рекомендую всім!


Бронзовий реліз (на рейтинг впливає 75% завантаженого)
 Трекер:    Зареєстрований   

Завантажити / скачати мультфільм українською



відео для новачків



 Зареєстрований:   2018-08-18 16:56
 Розмір:   8.81 GB 
 Оцінка мультсеріалу:   10/10 (Голосів: 21)
   
bot 
робот


З нами з: 30.09.07
Востаннє: 26.05.05
Повідомлень: 27845

2018-08-18 15:41  
Тему перенесено з Мультсеріали в HD до форуму Анонси релізів


dima_2004

Dark Invader 
Модератор відео


З нами з: 06.01.11
Востаннє: 10.04.21
Повідомлень: 3175

2018-08-18 16:21  
Доріжки будуть із сайту Simpsons Ua ?
dima_2004 
Свій


З нами з: 30.05.16
Востаннє: 05.04.21
Повідомлень: 83

2018-08-18 16:22  
Dark Invader
Ні з nnmclub

Dark Invader 
Модератор відео


З нами з: 06.01.11
Востаннє: 10.04.21
Повідомлень: 3175

2018-08-18 16:25  
dima_2004 написано:
Ні з nnmclub

Тобто вони заново зведені зі записів чи це пережатки зі сайту зі вшитою рекламою?

dima_2004 
Свій


З нами з: 30.05.16
Востаннє: 05.04.21
Повідомлень: 83

2018-08-18 16:37  
Dark Invader
Реклами ніби нема

bot 
робот


З нами з: 30.09.07
Востаннє: 26.05.05
Повідомлень: 27845

2018-08-18 16:56  
Тему перенесено з Анонси релізів до форуму Мультсеріали в HD


dima_2004

Dark Invader 
Модератор відео


З нами з: 06.01.11
Востаннє: 10.04.21
Повідомлень: 3175

2018-08-18 20:41  
Додай звіт Info.
dima_2004 
Свій


З нами з: 30.05.16
Востаннє: 05.04.21
Повідомлень: 83

2018-08-19 08:18  
Dark Invader
Готово)))

Lmkk 
Свій


З нами з: 04.07.09
Востаннє: 10.04.21
Повідомлень: 51

2019-04-29 19:07  
У назві "Cімпсони (Сезон 29) / The Simpsons (Season 29) (2017-2018) 1080p" перша велика літера "С" з латиниці (розкладки клавіатури). Через це на цей торрент дуже важко потрапити користуючись пошуком. Хіба що через ключові фрази "simpsons", "season 29" і т.д.
Радив би виправити.
Дякую.

Ваш часовий пояс: GMT + 2 Години

Нова тема   Відповісти