Останнє кохання містера Моргана / Mr. Morgan's Last Love (2013) 720p Ukr/Eng | Sub Eng

Нові коментарі

Нова тема   Відповісти
Автор Повідомлення
Anonymous 







2018-08-18 12:05  
Останнє кохання містера Моргана / Mr. Morgan's Last Love (2013) 720p Ukr/Eng | Sub Eng

Останнє кохання містера Моргана / Mr. Morgan's Last Love (2013) 720p Ukr/Eng | Sub Eng


Жанр: комедія, драма
Країна: США, Франція, Німеччина, Бельгія



Кінокомпанія: Bavaria Pictures
Режисер: Сандра Неттельбек
Актори: Майкл Кейн, Клеманс Поезі, Джастін Кірк, Джейн Александер, Джилліан Андерсон

Сюжет:
Овдовілий американський професор Метью Морґан живе у Парижі, де викладав філософію. Він мріяв разом зі своєю дружиною провести старість у столиці Франції, проте її смерть все змінила і він втратив сенс життя. Познайомившись із молодою, відкритою парижанкою Полін Льобі, викладачкою танців, Метью віднаходить сенс життя.


Тривалість: 01:55:48
Якість: 720p
Відео:
кодек:
розмір кадру: 1280х690
бітрейт: 7 851 кб/с

Аудіо # 1:
мова: українська
переклад: багатоголосий закадровий | Mic
кодек: 2.0
бітрейт: 192 кб/с

Аудіо # 2:
мова: англійська
переклад: оригінал
кодек: 5.1
бітрейт: 1 509 кб/с

Субтитри:
мова: англійська
тип: програмні (м'які)
формат: *.srt
Info
General
Unique ID : 216081321159065533124087601030906243065 (0xA28FBFA9C63753E19E92893839AFE7F9)
Format :
Format version : Version 4 / Version 2
File size : 7.88 GiB
Duration : 1 h 55 min
Overall bit rate : 9 746 kb/s
Encoded date : UTC 2018-08-18 08:57:37
Writing application : v6.1.0 ('Old Devil') built on Mar 4 2013 09:10:42
Writing library : libebml v1.3.0 + v1.4.0

Video
ID : 1
Format : AVC
Format/Info : Advanced Video Codec
Format profile : [email protected]
Format settings : CABAC / 8 Ref Frames
Format settings, CABAC : Yes
Format settings, ReFrames : 8 frames
Codec ID : V_MPEG4/ISO/AVC
Duration : 1 h 55 min
Bit rate : 7 851 kb/s
Width : 1 280 pixels
Height : 690 pixels
Display aspect ratio : 1.85:1
Frame rate mode : Constant
Frame rate : 23.976 (24000/1001) FPS
Color space : YUV
Chroma subsampling : 4:2:0
Bit depth : 8 bits
Scan type : Progressive
Bits/(Pixel*Frame) : 0.371
Stream size : 6.35 GiB (81%)
Writing library : core 125 r2208 d9d2288
Encoding settings : cabac=1 / ref=8 / deblock=1:-3:-3 / analyse=0x3:0x133 / me=umh / subme=11 / psy=1 / psy_rd=1.00:0.20 / mixed_ref=1 / me_range=32 / chroma_me=1 / trellis=2 / 8x8dct=1 / cqm=0 / deadzone=21,11 / fast_pskip=0 / chroma_qp_offset=-3 / threads=12 / lookahead_threads=2 / sliced_threads=0 / nr=0 / decimate=1 / interlaced=0 / bluray_compat=0 / constrained_intra=0 / bframes=12 / b_pyramid=2 / b_adapt=2 / b_bias=0 / direct=1 / weightb=1 / open_gop=0 / weightp=2 / keyint=250 / keyint_min=23 / scenecut=40 / intra_refresh=0 / rc=crf / mbtree=0 / crf=18.0 / qcomp=0.60 / qpmin=0 / qpmax=69 / qpstep=4 / ip_ratio=1.40 / pb_ratio=1.30 / aq=2:1.00
Language : English
Default : Yes
Forced : No

Audio #1
ID : 2
Format : AC-3
Format/Info : Audio Coding 3
Codec ID : A_AC3
Duration : 1 h 55 min
Bit rate mode : Constant
Bit rate : 192 kb/s
Channel(s) : 2 channels
Channel positions : Front: L R
Sampling rate : 48.0 kHz
Frame rate : 31.250 FPS (1536 SPF)
Bit depth : 16 bits
Compression mode : Lossy
Stream size : 159 MiB (2%)
Title : UKR (Mic)
Language : Ukrainian
Service kind : Complete Main
Default : Yes
Forced : Yes

Audio #2
ID : 3
Format :
Format/Info : Digital Theater Systems
Codec ID : A_DTS
Duration : 1 h 55 min
Bit rate mode : Constant
Bit rate : 1 509 kb/s
Channel(s) : 6 channels
Channel positions : Front: L C R, Side: L R, LFE
Sampling rate : 48.0 kHz
Frame rate : 93.750 FPS (512 SPF)
Bit depth : 24 bits
Compression mode : Lossy
Stream size : 1.22 GiB (15%)
Language : English
Default : No
Forced : No

Text
ID : 4
Format : UTF-8
Codec ID : S_TEXT/UTF8
Codec ID/Info : UTF-8 Plain Text
Language : English
Default : No
Forced : No

Menu
00:00:00.000 : en:00:00:00.000
00:10:54.779 : en:00:10:54.779
00:21:41.217 : en:00:21:41.217
00:32:45.463 : en:00:32:45.463
00:44:47.435 : en:00:44:47.435
00:57:20.354 : en:00:57:20.354
01:14:42.812 : en:01:14:42.812
01:30:02.689 : en:01:30:02.689
01:34:42.051 : en:01:34:42.051
01:42:04.118 : en:01:42:04.118
01:47:03.250 : en:01:47:03.250
01:50:38.715 : en:01:50:38.715
Скріншоти







За доріжку подяка п. legos25
Особиста подяка пану denixx за надану матеріальну допомогу на підтримку цього і майбутніх релізів.
Джерело:


 Трекер:    Зареєстрований   

Завантажити / скачати фільм українською



відео для новачків



 Зареєстрований:   2018-08-18 12:05
 Розмір:   7.88 GB 
 Оцінка фільму:   10/10 (Голосів: 1)
   
Ваш часовий пояс: GMT + 2 Години

Нова тема   Відповісти