Море кохання / Sea of love (1989) 1080p Ukr/Eng | Sub Eng

Нові коментарі

Нова тема   Відповісти
Автор Повідомлення
Anonymous 







2018-08-18 10:37  
Море кохання / Sea of love (1989) 1080p Ukr/Eng | Sub Eng

Море кохання / Sea of love (1989) 1080p Ukr/Eng | Sub Eng


Жанр: трилер, драма, кримінальний
Країна: США



Кінокомпанія: Universal Pictures
Режисер: Гарольд Беккер
Актори: Аль Пачіно, Еллен Баркін, Джон Гудман, Майкл Рукер, Вільям Гікеі, Річард Дженкінс

Сюжет:
У Нью-Йорку орудує серійний вбивця. Його жертви - чоловіки середніх років, любителі інтимних знайомств по оголошеннях в газеті. Але, на жаль, побачення закінчуються для романтиків плачевно: їх оголені трупи знаходять з кулею в голові, в одній і тій же позі ... Відшукати вбивцю доручено досвідченим детективам Френку Келлеру (Аль Пачіно) і його напарнику Шерманові (Джон Гудман). Поліцейським приходить в голову блискучий план. Вони вирішують розмістити в газеті власне оголошення і, тим самим, зловити вбивцю «на живця».


Тривалість: 01:52:47
Якість: 1080p
Відео:
кодек:
розмір кадру: 1920х1040
бітрейт: 8811 кб/с

Аудіо # 1:
мова: українська
переклад: багатоголосий закадровий
кодек: 2.0
бітрейт: 192 кб/с

Аудіо # 2:
мова: англійська
переклад: оригінал
кодек: 5.1
бітрейт: 640 кб/с

Субтитри:
мова: англійська
тип: програмні (м'які)
формат: *.srt
Info
General
Unique ID : 243292663471571578991107602581099139777 (0xB708766BD6483305A0C2E5888BB052C1)
Format :
Format version : Version 4 / Version 2
File size : 7.60 GiB
Duration : 1 h 52 min
Overall bit rate : 9 642 kb/s
Encoded date : UTC 2018-08-18 08:30:17
Writing application : v6.1.0 ('Old Devil') built on Mar 4 2013 09:10:42
Writing library : libebml v1.3.0 + v1.4.0

Video
ID : 1
Format : AVC
Format/Info : Advanced Video Codec
Format profile : [email protected]
Format settings : CABAC / 4 Ref Frames
Format settings, CABAC : Yes
Format settings, ReFrames : 4 frames
Codec ID : V_MPEG4/ISO/AVC
Duration : 1 h 52 min
Bit rate : 8 811 kb/s
Width : 1 920 pixels
Height : 1 040 pixels
Display aspect ratio : 1.85:1
Frame rate mode : Constant
Frame rate : 23.976 (24000/1001) FPS
Color space : YUV
Chroma subsampling : 4:2:0
Bit depth : 8 bits
Scan type : Progressive
Bits/(Pixel*Frame) : 0.184
Stream size : 6.79 GiB (89%)
Writing library : core 133 r2334 a3ac64b
Encoding settings : cabac=1 / ref=4 / deblock=1:-3:-3 / analyse=0x3:0x113 / me=umh / subme=11 / psy=1 / psy_rd=1.00:0.15 / mixed_ref=1 / me_range=32 / chroma_me=1 / trellis=2 / 8x8dct=1 / cqm=0 / deadzone=21,11 / fast_pskip=0 / chroma_qp_offset=-3 / threads=6 / lookahead_threads=1 / sliced_threads=0 / nr=0 / decimate=0 / interlaced=0 / bluray_compat=0 / constrained_intra=0 / bframes=6 / b_pyramid=2 / b_adapt=2 / b_bias=0 / direct=3 / weightb=1 / open_gop=0 / weightp=2 / keyint=240 / keyint_min=23 / scenecut=40 / intra_refresh=0 / rc=2pass / mbtree=0 / bitrate=8811 / ratetol=1.0 / qcomp=0.60 / qpmin=0 / qpmax=69 / qpstep=4 / cplxblur=20.0 / qblur=0.5 / ip_ratio=1.40 / pb_ratio=1.30 / aq=1:0.95
Language : English
Default : Yes
Forced : No

Audio #1
ID : 2
Format : AC-3
Format/Info : Audio Coding 3
Codec ID : A_AC3
Duration : 1 h 52 min
Bit rate mode : Constant
Bit rate : 192 kb/s
Channel(s) : 2 channels
Channel positions : Front: L R
Sampling rate : 48.0 kHz
Frame rate : 31.250 FPS (1536 SPF)
Bit depth : 16 bits
Compression mode : Lossy
Stream size : 155 MiB (2%)
Title : UKR (ICTV)
Language : Ukrainian
Service kind : Complete Main
Default : Yes
Forced : Yes

Audio #2
ID : 3
Format : AC-3
Format/Info : Audio Coding 3
Codec ID : A_AC3
Duration : 1 h 52 min
Bit rate mode : Constant
Bit rate : 640 kb/s
Channel(s) : 6 channels
Channel positions : Front: L C R, Side: L R, LFE
Sampling rate : 48.0 kHz
Frame rate : 31.250 FPS (1536 SPF)
Bit depth : 16 bits
Compression mode : Lossy
Stream size : 516 MiB (7%)
Title : ENG
Language : English
Service kind : Complete Main
Default : No
Forced : No

Text
ID : 4
Format : UTF-8
Codec ID : S_TEXT/UTF8
Codec ID/Info : UTF-8 Plain Text
Title : ENG
Language : English
Default : Yes
Forced : No

Menu
00:00:00.000 : en:00:00:00.000
00:03:33.338 : en:00:03:33.338
00:10:44.769 : en:00:10:44.769
00:18:16.637 : en:00:18:16.637
00:26:27.461 : en:00:26:27.461
00:33:52.864 : en:00:33:52.864
00:38:40.527 : en:00:38:40.527
00:45:03.951 : en:00:45:03.951
00:57:33.909 : en:00:57:33.909
01:04:00.211 : en:01:04:00.211
01:10:37.859 : en:01:10:37.859
01:18:22.239 : en:01:18:22.239
01:26:39.694 : en:01:26:39.694
01:31:31.695 : en:01:31:31.695
01:38:29.862 : en:01:38:29.862
01:42:48.454 : en:01:42:48.454
Скріншоти








За українську доріжку подяка п.: Bohdan237, Arsenfpu
Особиста подяка пану denixx за надану матеріальну допомогу на підтримку цього і майбутніх релізів.
Джерело:


Срібний реліз (на рейтинг впливає 50% завантаженого)
 Трекер:    Зареєстрований   

Завантажити / скачати фільм українською



відео для новачків



 Зареєстрований:   2018-08-18 10:37
 Розмір:   7.6 GB 
 Оцінка фільму:   9.3/10 (Голосів: 3)
   
Інші релізи
   Море кохання / Sea of love (1989) Ukr/Eng Arsenfpu  6 / 0   1.88 GB   2017-11-11 01:25 
+380954897458 
Свій


З нами з: 02.06.17
Востаннє: 13.12.18
Повідомлень: 99

2018-09-01 22:07  
Пачіно, який щойно вийшов із запою, молодий Гудмен, Баркін- гарнюня, мов ляля, Рукер і Дженкінс на задньому плані... Ностальджи... Сто років не бачив! Happy Happy
Ваш часовий пояс: GMT + 2 Години

Нова тема   Відповісти