Нічого собі поїздочка / Joy Ride (2001) 720p Ukr/Eng | Sub Eng

Нові коментарі

Нова тема   Відповісти
Автор Повідомлення
Anonymous 







2018-08-18 11:16  
Нічого собі поїздочка / Joy Ride (2001) 720p Ukr/Eng | Sub Eng

Нічого собі поїздочка / Joy Ride (2001) 720p Ukr/Eng | Sub Eng


Жанр: детектив, трилер
Країна: США



Кінокомпанія: 20th Century Fox
Режисер: Джон Дав
Актори: Стів Зан, Пол Вокер, Лілі Собескі, Джессіка Боуман, Стюарт Стоун, Бейзіл Воллес, Брайан Лекнер, Мері Вікліфф, МакКензі Саттертвейт, Делл Йонт, Кеннет Вайт, Луїс Кортес, Майкл Маклірі, Джим Бівер

Сюжет:
Темна, пустельна стрічка шосе змією протягнулася по безлюдному ландшафту середньої Америки. Ця дорога живе своїм життям, за своїми правилами і законами, і якщо ти наважився зробити по ній подорож, то непогано б ці закони вивчити напам'ять. Герої фільму потрапляють в страшну халепу, коли Фулер вмовляє молодшого брата Льюїса встановити в машині старий радіопередавач. Для нього це лише "кльова" антикварна дивина, за допомогою якої можна дозволити собі невеликий розіграш. Тепер хлопцям доведеться своєю кров'ю розплачуватися за вчинок, на який здатний кожний з нас ...


Тривалість: 01:37:07
Якість: 720p
Відео:
кодек:
розмір кадру: 1280х544
бітрейт: 4500 кб/с

Аудіо # 1:
мова: українська
переклад: багатоголосий закадровий
кодек: 2.0
бітрейт: 192 кб/с

Аудіо # 2:
мова: англійська
переклад: оригінал
кодек: 5.1
бітрейт: 448 кб/с

Субтитри:
мова: англійська
тип: програмні (м'які)
формат: *.srt
Info
General
Unique ID : 191895914930313273625145274170783448866 (0x905DCF128FF0390191E149BFED5A3F22)
Format :
Format version : Version 4 / Version 2
File size : 3.49 GiB
Duration : 1 h 37 min
Overall bit rate : 5 140 kb/s
Movie name : -=MediaClub-kaspr=-
Encoded date : UTC 2018-08-18 08:12:12
Writing application : v6.1.0 ('Old Devil') built on Mar 4 2013 09:10:42
Writing library : libebml v1.3.0 + v1.4.0

Video
ID : 1
Format : AVC
Format/Info : Advanced Video Codec
Format profile : [email protected]
Format settings : CABAC / 9 Ref Frames
Format settings, CABAC : Yes
Format settings, ReFrames : 9 frames
Codec ID : V_MPEG4/ISO/AVC
Duration : 1 h 37 min
Bit rate : 4 500 kb/s
Width : 1 280 pixels
Height : 544 pixels
Display aspect ratio : 2.35:1
Frame rate mode : Constant
Frame rate : 23.976 (24000/1001) FPS
Color space : YUV
Chroma subsampling : 4:2:0
Bit depth : 8 bits
Scan type : Progressive
Bits/(Pixel*Frame) : 0.270
Stream size : 2.98 GiB (86%)
Title : -=MediaClub-kaspr=-
Writing library : core 130 r2273 b3065e6
Encoding settings : cabac=1 / ref=9 / deblock=1:-3:-3 / analyse=0x3:0x133 / me=umh / subme=11 / psy=1 / psy_rd=1.00:0.20 / mixed_ref=1 / me_range=48 / chroma_me=1 / trellis=2 / 8x8dct=1 / cqm=0 / deadzone=21,11 / fast_pskip=0 / chroma_qp_offset=-3 / threads=12 / lookahead_threads=2 / sliced_threads=0 / nr=0 / decimate=0 / interlaced=0 / bluray_compat=0 / constrained_intra=0 / bframes=9 / b_pyramid=2 / b_adapt=2 / b_bias=0 / direct=3 / weightb=1 / open_gop=0 / weightp=2 / keyint=240 / keyint_min=23 / scenecut=40 / intra_refresh=0 / rc=2pass / mbtree=0 / bitrate=4500 / ratetol=1.0 / qcomp=0.60 / qpmin=0 / qpmax=69 / qpstep=4 / cplxblur=20.0 / qblur=0.5 / ip_ratio=1.40 / pb_ratio=1.30 / aq=1:1.00
Default : Yes
Forced : Yes

Audio #1
ID : 2
Format : AC-3
Format/Info : Audio Coding 3
Codec ID : A_AC3
Duration : 1 h 37 min
Bit rate mode : Constant
Bit rate : 192 kb/s
Channel(s) : 2 channels
Channel positions : Front: L R
Sampling rate : 48.0 kHz
Frame rate : 31.250 FPS (1536 SPF)
Bit depth : 16 bits
Compression mode : Lossy
Stream size : 133 MiB (4%)
Title : UKR (Новий)
Language : Ukrainian
Service kind : Complete Main
Default : Yes
Forced : Yes

Audio #2
ID : 3
Format : AC-3
Format/Info : Audio Coding 3
Codec ID : A_AC3
Duration : 1 h 37 min
Bit rate mode : Constant
Bit rate : 448 kb/s
Channel(s) : 6 channels
Channel positions : Front: L C R, Side: L R, LFE
Sampling rate : 48.0 kHz
Frame rate : 31.250 FPS (1536 SPF)
Bit depth : 16 bits
Compression mode : Lossy
Stream size : 311 MiB (9%)
Language : English
Service kind : Complete Main
Default : No
Forced : No

Text
ID : 4
Format : UTF-8
Codec ID : S_TEXT/UTF8
Codec ID/Info : UTF-8 Plain Text
Language : English
Default : No
Forced : No

Menu
00:00:00.000 : en:Chapter 01
00:01:53.113 : en:Chapter 03
00:03:49.187 : en:Chapter 05
00:06:03.404 : en:Chapter 07
00:10:04.812 : en:Chapter 09
00:11:40.116 : en:Chapter 11
00:15:52.826 : en:Chapter 13
00:17:21.707 : en:Chapter 15
00:21:27.911 : en:Chapter 17
00:25:58.515 : en:Chapter 19
00:31:03.611 : en:Chapter 21
00:36:08.374 : en:Chapter 23
00:39:21.984 : en:Chapter 25
00:42:22.206 : en:Chapter 27
00:48:36.371 : en:Chapter 29
00:50:40.829 : en:Chapter 31
00:54:37.190 : en:Chapter 33
00:58:30.381 : en:Chapter 35
01:00:51.731 : en:Chapter 37
01:02:46.345 : en:Chapter 39
01:04:39.500 : en:Chapter 41
01:08:00.451 : en:Chapter 43
01:12:18.042 : en:Chapter 45
01:15:57.678 : en:Chapter 47
01:18:10.060 : en:Chapter 49
01:24:02.829 : en:Chapter 51
01:25:54.107 : en:Chapter 53
01:29:02.587 : en:Chapter 55
01:31:40.620 : en:Chapter 57
01:33:05.288 : en:Chapter 59
Скріншоти







За українську доріжку подяка п.: Bohdan237, Arsenfpu
Особиста подяка пану denixx за надану матеріальну допомогу на підтримку цього і майбутніх релізів.
Джерело:


Срібний реліз (на рейтинг впливає 50% завантаженого)
 Трекер:    Зареєстрований   

Завантажити / скачати фільм українською



відео для новачків



 Зареєстрований:   2018-08-18 11:16
 Розмір:   3.49 GB 
 Оцінка фільму:   9.9/10 (Голосів: 8)
   
Інші релізи
Skovorodkin1985 
Новенький


З нами з: 09.01.15
Востаннє: 14.09.20
Повідомлень: 20

2020-01-05 14:57  
Дякую за реліз, чув непогані відгуки про цей фільм.
Ваш часовий пояс: GMT + 2 Години

Нова тема   Відповісти