Яма / The Hole (2001) 720p Ukr/Eng | Sub Eng

Нові коментарі

Нова тема   Відповісти
Автор Повідомлення
staf777 
Відео Гуртом - підтримка та поширення
Відео Гуртом - підтримка та поширення


З нами з: 16.11.16
Востаннє: 22.05.19
Повідомлень: 2379

2018-08-18 09:25  
Яма / The Hole (2001) 720p Ukr/Eng | Sub Eng

Яма / The Hole (2001) 720p Ukr/Eng | Sub Eng


Жанр: трилер, драма, детектив
Країна: Велика Британія



Кінокомпанія: Canal+, Cowboy Films, Film Council, Granada Film Productions, Impact Pictures, Pathé Pictures International
Режисер: Нік Гемм
Актори: Кіра Найтлі, Тора Бірч, Дезмонд Гарінгтон, Деніел Броклбенк, Лоренс Фокс та інші

Сюжет:
Четверо студентів престижної англійської школи вирішили влаштувати особливу вечірку і вибрали для цього бункер часів війни. Кинувши виклик батькам, школі, повсякденному житті і самим собі, вони спускаються в лиховісні катакомби, щоб піддати свій розум, свої почуття шокуючим пригодам. Але через 18 днів лише одному учасникові цієї божевільної витівки вдається вирватися з цього пекла - моторошного підземелля.


Тривалість: 01:42:18
Якість: 720p
Відео:
кодек:
розмір кадру: 1280x720
бітрейт: 9762 кб/с

Аудіо # 1: &
мова: українська
переклад: двоголосий закадровий
кодек: 2.0
бітрейт: 192 кб/с

Аудіо # 2:
мова: англійська
переклад: оригінал
кодек: 2.0
бітрейт: 1509 кб/с

Субтитри:
мова: англійська
тип: програмні (м'які)
формат: *.srt
Info
General
Unique ID : 90418202240702641549034827883208466490 (0x4405E98DE38FF353D27E21025CFF603A)
Complete name : S:\Фільми в HD\Трилер\The Hole (2001) 720p [UKR_ENG] [Hurtom].
Format :
Format version : Version 4 / Version 2
File size : 8.19 GiB
Duration : 1 h 42 min
Overall bit rate : 11.5 Mb/s
Movie name : The Hole (2001) 720p [UKR_ENG] [Hurtom]
Encoded date : UTC 2018-11-30 20:52:43
Writing application : v24.0.0 ('Beyond The Pale') 64-bit
Writing library : libebml v1.3.6 + v1.4.9
Cover : Yes
Attachments : cover.jpg

Video
ID : 1
Format : AVC
Format/Info : Advanced Video Codec
Format profile : [email protected]
Format settings : CABAC / 9 Ref Frames
Format settings, CABAC : Yes
Format settings, ReFrames : 9 frames
Codec ID : V_MPEG4/ISO/AVC
Duration : 1 h 42 min
Bit rate : 9 762 kb/s
Width : 1 280 pixels
Height : 720 pixels
Display aspect ratio : 16:9
Frame rate mode : Constant
Frame rate : 23.976 (24000/1001) FPS
Color space : YUV
Chroma subsampling : 4:2:0
Bit depth : 8 bits
Scan type : Progressive
Bits/(Pixel*Frame) : 0.442
Stream size : 6.98 GiB (85%)
Writing library : core 152 r2851kMod ba24899
Encoding settings : cabac=1 / ref=9 / deblock=1:0:0 / analyse=0x3:0x133 / me=umh / subme=11 / psy=1 / fade_compensate=0.00 / psy_rd=1.05:0.00 / mixed_ref=1 / me_range=32 / chroma_me=1 / trellis=2 / 8x8dct=1 / cqm=0 / deadzone=21,11 / fast_pskip=0 / chroma_qp_offset=-2 / threads=6 / lookahead_threads=1 / sliced_threads=0 / nr=0 / decimate=1 / interlaced=0 / bluray_compat=0 / constrained_intra=0 / bframes=10 / b_pyramid=2 / b_adapt=2 / b_bias=0 / direct=3 / weightb=1 / open_gop=0 / weightp=2 / keyint=250 / keyint_min=23 / scenecut=40 / intra_refresh=0 / rc=crf / mbtree=0 / crf=17.2000 / qcomp=0.60 / qpmin=0 / qpmax=69 / qpstep=4 / ip_ratio=1.30 / pb_ratio=1.20 / aq=1:0.65
Language : English
Default : Yes
Forced : No
Color range : Limited
Matrix coefficients : BT.709

Audio #1
ID : 2
Format : AC-3
Format/Info : Audio Coding 3
Codec ID : A_AC3
Duration : 1 h 42 min
Bit rate mode : Constant
Bit rate : 192 kb/s
Channel(s) : 2 channels
Channel positions : Front: L R
Sampling rate : 48.0 kHz
Frame rate : 31.250 FPS (1536 SPF)
Bit depth : 16 bits
Compression mode : Lossy
Stream size : 140 MiB (2%)
Title : [UA-DVO]
Language : Ukrainian
Service kind : Complete Main
Default : Yes
Forced : Yes

Audio #2
ID : 3
Format :
Format/Info : Digital Theater Systems
Codec ID : A_DTS
Duration : 1 h 42 min
Bit rate mode : Constant
Bit rate : 1 509 kb/s
Channel(s) : 2 channels
Channel positions : Front: L R
Sampling rate : 48.0 kHz
Frame rate : 93.750 FPS (512 SPF)
Bit depth : 24 bits
Compression mode : Lossy
Stream size : 1.08 GiB (13%)
Language : English
Default : No
Forced : No

Text
ID : 4
Format : UTF-8
Codec ID : S_TEXT/UTF8
Codec ID/Info : UTF-8 Plain Text
Duration : 1 h 33 min
Bit rate : 54 b/s
Count of elements : 1003
Stream size : 37.0 KiB (0%)
Language : English
Default : No
Forced : No

Menu
00:00:00.000 : en:00:00:00.000
00:05:10.727 : en:00:05:10.727
00:11:58.551 : en:00:11:58.551
00:16:54.638 : en:00:16:54.638
00:24:21.042 : en:00:24:21.042
00:32:35.912 : en:00:32:35.912
00:39:23.319 : en:00:39:23.319
00:43:48.042 : en:00:43:48.042
00:50:30.652 : en:00:50:30.652
00:58:40.141 : en:00:58:40.141
01:03:31.182 : en:01:03:31.182
01:10:26.472 : en:01:10:26.472
01:18:42.008 : en:01:18:42.008
01:25:46.307 : en:01:25:46.307
01:33:51.375 : en:01:33:51.375
Скріншоти




Джерело: &
Особиста оцінка: 0 - не дивився


Срібний реліз (на рейтинг впливає 50% завантаженого)
 Трекер:    Зареєстрований   

Завантажити / скачати фільм українською



відео для новачків



 Зареєстрований:   2018-12-01 11:13
 Розмір:   8.19 GB 
 Оцінка фільму:   8.9/10 (Голосів: 10)
   
Інші релізи
   Яма / The Hole (2001) 1080p Ukr/Eng | Sub Eng krigg070  0 / 0   10.15 GB   2017-06-12 19:29 
   Яма / The Hole (2001) AVC Ukr/Eng | Sub Eng krigg070  4 / 0   1.15 GB   2017-06-11 15:12 
   Яма / The Hole (2001) Ukr | sub Eng JACKUS  2 / 0   1.46 GB   2010-08-24 14:28 
staf777 
Відео Гуртом - підтримка та поширення
Відео Гуртом - підтримка та поширення


З нами з: 16.11.16
Востаннє: 22.05.19
Повідомлень: 2379

2018-12-01 11:16  
Замінив оригінальну доріжку на 
casper101 
VIP


З нами з: 03.12.09
Востаннє: 22.05.19
Повідомлень: 404

2018-12-01 14:12  
дякую за золото
Ваш часовий пояс: GMT + 2 Години

Нова тема   Відповісти