Міські піжони / City Slickers (1991) 720p Ukr/Eng | Sub Eng

Нові коментарі

Нова тема   Відповісти
Автор Повідомлення
Anonymous 







2018-08-18 05:27  
Міські піжони / City Slickers (1991) 720p Ukr/Eng | Sub Eng

Міські піжони / City Slickers (1991) 720p Ukr/Eng | Sub Eng


Жанр: драма, комедія, пригодницький, вестерн
Країна: США



Кінокомпанія: Castle Rock Entertainment, Nelson Entertainment, Face Productions, Sultan Entertainment
Режисер: Рон Андервуд
Актори: Біллі Крістал, Деніел Стерн, Бруно Кірбі, Джек Паланс (Володимир Палагнюк), Патрісія Веттінг, Хелен Слейтер, Джейн Медоуз, Джейк Джилленгол / Jake Gyllenhaal

Сюжет:
Мітч Роббінс і його троє друзів, змучившись від одноманітного життя, шукають пригод по цілому світу. На 39-річчя Мітча друзі роблять йому подарунок: можливість поїхати на Дикий Захід, щоби на деякий час стати ковбоєм. Туристична поїздка перетворюється на суворе випробування, витримати яке зможуть тільки справжні чоловіки.


Тривалість: 01:53:53
Якість: 720p
Відео:
кодек:
розмір кадру: 1280х696
бітрейт: 5359 кб/с

Аудіо # 1:
мова: українська
переклад: двоголосий закадровий ,
кодек: 2.0
бітрейт: 192 кб/с

Аудіо # 2:
мова: англійська
переклад: оригінал
кодек: 5.1
бітрейт: 1509 кб/с

Субтитри:
мова: англійська
тип: програмні (м'які)
формат: *.srt
Info
General
Unique ID : 235501666404223076227423022818250404499 (0xB12BF89BD9E005C7AF347DD871DF3293)
Format :
Format version : Version 4 / Version 2
File size : 5.62 GiB
Duration : 1 h 53 min
Overall bit rate : 7 060 kb/s
Movie name : City Slickers (1991) 720p
Encoded date : UTC 2018-08-18 03:19:37
Writing application : v6.1.0 ('Old Devil') built on Mar 4 2013 09:10:42
Writing library : libebml v1.3.0 + v1.4.0

Video
ID : 1
Format : AVC
Format/Info : Advanced Video Codec
Format profile : [email protected]
Format settings : CABAC / 5 Ref Frames
Format settings, CABAC : Yes
Format settings, ReFrames : 5 frames
Codec ID : V_MPEG4/ISO/AVC
Duration : 1 h 53 min
Bit rate : 5 359 kb/s
Width : 1 280 pixels
Height : 696 pixels
Display aspect ratio : 1.85:1
Frame rate mode : Constant
Frame rate : 23.976 (24000/1001) FPS
Color space : YUV
Chroma subsampling : 4:2:0
Bit depth : 8 bits
Scan type : Progressive
Bits/(Pixel*Frame) : 0.251
Stream size : 4.15 GiB (74%)
Writing library : core 115 r1995 c1e60b9
Encoding settings : cabac=1 / ref=5 / deblock=1:0:0 / analyse=0x3:0x113 / me=umh / subme=8 / psy=1 / psy_rd=1.00:0.00 / mixed_ref=1 / me_range=16 / chroma_me=1 / trellis=1 / 8x8dct=1 / cqm=0 / deadzone=21,11 / fast_pskip=1 / chroma_qp_offset=-2 / threads=3 / sliced_threads=0 / nr=0 / decimate=1 / interlaced=0 / bluray_compat=0 / constrained_intra=0 / bframes=3 / b_pyramid=2 / b_adapt=2 / b_bias=0 / direct=3 / weightb=1 / open_gop=0 / weightp=2 / keyint=240 / keyint_min=24 / scenecut=40 / intra_refresh=0 / rc_lookahead=50 / rc=2pass / mbtree=1 / bitrate=5359 / ratetol=1.0 / qcomp=0.60 / qpmin=0 / qpmax=69 / qpstep=4 / cplxblur=20.0 / qblur=0.5 / ip_ratio=1.40 / aq=1:1.00
Default : Yes
Forced : No

Audio #1
ID : 2
Format : AC-3
Format/Info : Audio Coding 3
Codec ID : A_AC3
Duration : 1 h 53 min
Bit rate mode : Constant
Bit rate : 192 kb/s
Channel(s) : 2 channels
Channel positions : Front: L R
Sampling rate : 48.0 kHz
Frame rate : 31.250 FPS (1536 SPF)
Bit depth : 16 bits
Compression mode : Lossy
Stream size : 156 MiB (3%)
Title : UKR (ICTV, НТН)
Language : Ukrainian
Service kind : Complete Main
Default : Yes
Forced : Yes

Audio #2
ID : 3
Format :
Format/Info : Digital Theater Systems
Codec ID : A_DTS
Duration : 1 h 53 min
Bit rate mode : Constant
Bit rate : 1 509 kb/s
Channel(s) : 6 channels
Channel positions : Front: L C R, Side: L R, LFE
Sampling rate : 48.0 kHz
Frame rate : 93.750 FPS (512 SPF)
Bit depth : 24 bits
Compression mode : Lossy
Stream size : 1.20 GiB (21%)
Title : Original
Language : English
Default : No
Forced : No

Text
ID : 4
Format : UTF-8
Codec ID : S_TEXT/UTF8
Codec ID/Info : UTF-8 Plain Text
Language : English
Default : No
Forced : No

Menu
00:00:00.000 : en:00:00:00.000
00:02:59.930 : en:00:02:59.930
00:08:29.676 : en:00:08:29.676
00:14:13.436 : en:00:14:13.436
00:19:36.592 : en:00:19:36.592
00:23:23.068 : en:00:23:23.068
00:25:18.600 : en:00:25:18.600
00:27:40.534 : en:00:27:40.534
00:31:42.275 : en:00:31:42.275
00:32:59.477 : en:00:32:59.477
00:37:09.894 : en:00:37:09.894
00:39:21.734 : en:00:39:21.734
00:44:22.869 : en:00:44:22.869
00:48:24.860 : en:00:48:24.860
00:53:12.481 : en:00:53:12.481
00:57:47.756 : en:00:57:47.756
01:01:02.284 : en:01:01:02.284
01:04:19.147 : en:01:04:19.147
01:11:00.006 : en:01:11:00.006
01:15:40.661 : en:01:15:40.661
01:25:50.729 : en:01:25:50.729
01:29:40.041 : en:01:29:40.041
01:30:52.530 : en:01:30:52.530
01:35:01.529 : en:01:35:01.529
01:39:07.400 : en:01:39:07.400
01:42:29.935 : en:01:42:29.935
01:45:19.730 : en:01:45:19.730
01:49:29.313 : en:01:49:29.313
Скріншоти







За українську доріжку подяка п.: Bohdan237, Arsenfpu
Особиста подяка пану denixx за надану матеріальну допомогу на підтримку цього і майбутніх релізів.
Джерело:


Срібний реліз (на рейтинг впливає 50% завантаженого)
 Трекер:    Зареєстрований   

Завантажити / скачати фільм українською



відео для новачків



 Зареєстрований:   2018-08-18 05:27
 Розмір:   5.62 GB 
 Оцінка фільму:   10/10 (Голосів: 1)
   
Інші релізи
   Міські піжони / City Slickers (1991) Ukr/Eng Arsenfpu  1 / 0   2.07 GB   2017-09-05 12:09 
   Міські піжони / City Slickers (1991) [MP4, 640x] apvAltisimo  1 / 0   733 MB   2016-06-15 14:21 
+380954897458 
Свій


З нами з: 02.06.17
Востаннє: 10.12.18
Повідомлень: 98

2018-09-01 21:59  
Цікаво, за роль у цій комедії Джек наш Палагнюк отримав єдиного у своїй кар'єрі Оскара.
Ваш часовий пояс: GMT + 2 Години

Нова тема   Відповісти