Залишайся / Stay (2005) 1080p Ukr/Eng | Sub Eng

Нові коментарі

Нова тема   Відповісти
Автор Повідомлення
Anonymous 







2018-08-17 19:45  
Залишайся / Stay (2005) 1080p Ukr/Eng | Sub Eng

Залишайся / Stay (2005) 1080p Ukr/Eng | Sub Eng


Жанр: драма, містика, трилер
Країна: США



Кінокомпанія: New Regency Pictures, Epsilon Motion Pictures, Regency Enterprises
Режисер: Марк Форстер
Актори: Еван Макгрегор, Раян Гослінг, Кейт Бартон, Наомі Воттс, Боб Госкінс, Елізабет Різер

Сюжет:
Знаходячись на межі божевілля студент Генрі Ліземо, розповідає психіатрові Сему Фостеру про те, що накладе на себе руки в суботу опівночі. Не бажаючи допустити загибелі Генрі, Сем вирішує зробити все від нього залежне, щоб позбавити парубка від нав'язливої ідеї. Він вирушає разом з ним в подорож по місту, в ході якого і сам поступово починає занурюватися в кошмарні ілюзії пацієнта, разом з ним балансуючи на тонкій грані між життям і смертю…


Тривалість: 01:38:56
Якість: 1080p
Відео:
кодек:
розмір кадру: 1916х816
бітрейт: 13,5 Мб/с

Аудіо # 1:
мова: українська
переклад: двоголосий закадровий
кодек: 5.1
бітрейт: 448 кб/с

Аудіо # 2:
мова: англійська
переклад: оригінал
кодек: 5.1
бітрейт: 1 509 кб/с

Субтитри (Forced):
мова: українська (лише в епізоді без озвученого перекладу ~ 2 хв.)
тип: програмні (м'які)
формат: *.srt

Субтитри:
мова: англійська
тип: програмні (м'які)
формат: *.srt
Info
General
Unique ID : 205663441047317597747334638118429620291 (0x9AB956846843AA83A8C688EF52397843)
Format :
Format version : Version 4 / Version 2
File size : 10.7 GiB
Duration : 1 h 38 min
Overall bit rate : 15.5 Mb/s
Movie name : Останься [2005, /1080p] || [email protected]
Encoded date : UTC 2018-08-17 16:35:26
Writing application : v6.1.0 ('Old Devil') built on Mar 4 2013 09:10:42
Writing library : libebml v1.3.0 + v1.4.0
Attachments : Poster.jpg

Video
ID : 1
Format : AVC
Format/Info : Advanced Video Codec
Format profile : [email protected]
Format settings : CABAC / 5 Ref Frames
Format settings, CABAC : Yes
Format settings, ReFrames : 5 frames
Codec ID : V_MPEG4/ISO/AVC
Duration : 1 h 38 min
Bit rate : 13.5 Mb/s
Width : 1 916 pixels
Height : 816 pixels
Display aspect ratio : 2.35:1
Frame rate mode : Constant
Frame rate : 23.976 (24000/1001) FPS
Color space : YUV
Chroma subsampling : 4:2:0
Bit depth : 8 bits
Scan type : Progressive
Bits/(Pixel*Frame) : 0.360
Stream size : 9.11 GiB (85%)
Writing library : core 116 r2074 2641b9e
Encoding settings : cabac=1 / ref=5 / deblock=1:-3:-3 / analyse=0x3:0x113 / me=umh / subme=11 / psy=1 / psy_rd=1.00:0.10 / mixed_ref=1 / me_range=64 / chroma_me=1 / trellis=2 / 8x8dct=1 / cqm=0 / deadzone=21,11 / fast_pskip=0 / chroma_qp_offset=-3 / threads=12 / sliced_threads=0 / nr=0 / decimate=0 / interlaced=0 / bluray_compat=0 / constrained_intra=0 / bframes=11 / b_pyramid=2 / b_adapt=2 / b_bias=0 / direct=3 / weightb=1 / open_gop=0 / weightp=2 / keyint=250 / keyint_min=23 / scenecut=40 / intra_refresh=0 / rc_lookahead=40 / rc=2pass / mbtree=0 / bitrate=13500 / ratetol=1.0 / qcomp=0.65 / qpmin=0 / qpmax=69 / qpstep=4 / cplxblur=20.0 / qblur=0.5 / vbv_maxrate=40000 / vbv_bufsize=30000 / nal_hrd=none / ip_ratio=1.40 / pb_ratio=1.30 / aq=1:1.00
Language : English
Default : Yes
Forced : Yes
Color range : Limited
Color primaries : BT.709
Transfer characteristics : BT.709
Matrix coefficients : BT.709

Audio #1
ID : 2
Format : AC-3
Format/Info : Audio Coding 3
Codec ID : A_AC3
Duration : 1 h 38 min
Bit rate mode : Constant
Bit rate : 448 kb/s
Channel(s) : 6 channels
Channel positions : Front: L C R, Side: L R, LFE
Sampling rate : 48.0 kHz
Frame rate : 31.250 FPS (1536 SPF)
Bit depth : 16 bits
Compression mode : Lossy
Stream size : 317 MiB (3%)
Title : UKR (Новий)
Language : Ukrainian
Service kind : Complete Main
Default : Yes
Forced : Yes

Audio #2
ID : 3
Format :
Format/Info : Digital Theater Systems
Codec ID : A_DTS
Duration : 1 h 38 min
Bit rate mode : Constant
Bit rate : 1 509 kb/s
Channel(s) : 6 channels
Channel positions : Front: L C R, Side: L R, LFE
Sampling rate : 48.0 kHz
Frame rate : 93.750 FPS (512 SPF)
Bit depth : 24 bits
Compression mode : Lossy
Stream size : 1.04 GiB (10%)
Language : English
Default : No
Forced : No

Text #1
ID : 4
Format : UTF-8
Codec ID : S_TEXT/UTF8
Codec ID/Info : UTF-8 Plain Text
Title : UKR
Language : Ukrainian
Default : Yes
Forced : Yes

Text #2
ID : 5
Format : UTF-8
Codec ID : S_TEXT/UTF8
Codec ID/Info : UTF-8 Plain Text
Title : Full
Language : English
Default : No
Forced : No

Menu
00:00:00.000 : :00:00:00.000
00:09:50.381 : :00:09:50.381
00:16:37.747 : :00:16:37.747
00:27:35.070 : :00:27:35.070
00:34:58.096 : :00:34:58.096
00:41:04.754 : :00:41:04.754
00:48:26.195 : :00:48:26.195
00:56:09.324 : :00:56:09.324
01:04:07.218 : :01:04:07.218
01:09:27.830 : :01:09:27.830
01:17:18.217 : :01:17:18.217
01:25:08.854 : :01:25:08.854
Скріншоти









За українську доріжку подяка п. Skiff
Особиста подяка пану denixx за надану матеріальну допомогу на підтримку цього і майбутніх релізів.
Джерело:


 Трекер:    Зареєстрований   

Завантажити / скачати фільм українською



відео для новачків



 Зареєстрований:   2018-08-17 19:45
 Розмір:   10.68 GB 
 Оцінка фільму:   10/10 (Голосів: 4)
   
Інші релізи
   Залишайся / Stay (2005) 1080p H.265 Ukr/Eng | Sub Eng -Star-Lord-  2 / 0   4.01 GB   2018-10-31 17:51 
   Залишайся / Stay (2005) AVC Ukr/Eng | Sub Eng vovikmar  0 / 0   2.64 GB   2017-07-01 11:00 
   Залишайся / Stay (2005) Ukr/Eng | Sub Eng Skiff  4 / 3   1.77 GB   2011-09-04 16:54 
Ваш часовий пояс: GMT + 2 Години

Нова тема   Відповісти