План втечі 2 / Escape Plan 2: Hades (2018) Remux 1080p Ukr/Eng | Sub Eng

Нові коментарі

Нова тема   Відповісти
Автор Повідомлення
staf777 
Попереджень: 1
Попереджень: 1 


З нами з: 16.11.16
Востаннє: 19.10.18
Повідомлень: 1637

2018-08-17 17:55  
План втечі 2 / Escape Plan 2: Hades (2018) Remux 1080p Ukr/Eng | Sub Eng



Жанр: бойовик, трилер
Країна: Китай, США



Кінокомпанія: Emmett/Furla/Oasis Films (EFO Films), Grindstone Entertainment Group, Leomus Pictures
Режисер: Стівен С. Міллер
Актори: Дейв Батіста, Сільвестр Сталлоне, Джеймі Кінг, Тітус Веллівер, Вес Четхем, Фіфті Сент, Джессі Меткалф, Лідія Халл, Хуан Сяомін

Сюжет:
Рей Бреслін управляє елітною командою фахівців з безпеки, навчених мистецтву втечі з найбільш непроникних в'язниць в світі. Коли його довіреного оперативника Шу Рена викрадають і поміщають в найскладнішу в'язницю з коли-небудь побудованих, повністю комп'ютеризовану з постійно змінною формою, Рей вирішує вистежити його за допомогою своїх колишніх друзів.


Тривалість: 01:33:37
Якість: Remux 1080p
Відео:
кодек:
розмір кадру: 1920x1080
бітрейт: 34.5 Mб/с

Аудіо # 1:
мова: українська
переклад: професійний дубльований
кодек: 2.0
бітрейт: 192 кб/с

Аудіо # 2:
мова: англійська
переклад: оригінал
кодек: -HD MA 5.1
бітрейт: 4108 кб/с

Субтитри:
мова: англійська
тип: програмні (м'які)
формат: *.srt
Info
General
Unique ID : 4303539718119166553460372430907163357 (0x33CD4E3CD9418A35BB8013FA25EC2DD)
Complete name : K:\Бойовик\Escape Plan 2 Hades (2018) Remux 1080 [UKR_ENG][Hurtom].
Format :
Format version : Version 4 / Version 2
File size : 25.4 GiB
Duration : 1 h 33 min
Overall bit rate mode : Variable
Overall bit rate : 38.8 Mb/s
Movie name : / Escape Plan 2 Hades (2018) Remux 1080 [UKR_ENG][Hurtom]
Encoded date : UTC 2018-08-30 14:09:10
Writing application : v24.0.0 ('Beyond The Pale') 64-bit
Writing library : libebml v1.3.6 + v1.4.9
Cover : Yes
Attachments : cover

Video
ID : 1
Format : AVC
Format/Info : Advanced Video Codec
Format profile : [email protected]
Format settings : CABAC / 4 Ref Frames
Format settings, CABAC : Yes
Format settings, ReFrames : 4 frames
Format settings, GOP : M=1, N=12
Codec ID : V_MPEG4/ISO/AVC
Duration : 1 h 33 min
Bit rate mode : Variable
Bit rate : 34.5 Mb/s
Maximum bit rate : 37.0 Mb/s
Width : 1 920 pixels
Height : 1 080 pixels
Display aspect ratio : 16:9
Frame rate mode : Constant
Frame rate : 23.976 (24000/1001) FPS
Color space : YUV
Chroma subsampling : 4:2:0
Bit depth : 8 bits
Scan type : Progressive
Bits/(Pixel*Frame) : 0.693
Stream size : 22.5 GiB (89%)
Language : English
Default : Yes
Forced : No

Audio #1
ID : 2
Format : AC-3
Format/Info : Audio Coding 3
Codec ID : A_AC3
Duration : 1 h 33 min
Bit rate mode : Constant
Bit rate : 192 kb/s
Channel(s) : 2 channels
Channel positions : Front: L R
Sampling rate : 48.0 kHz
Frame rate : 31.250 FPS (1536 SPF)
Bit depth : 16 bits
Compression mode : Lossy
Stream size : 129 MiB (0%)
Title : 2.0 @ 192 kbps
Language : Ukrainian
Service kind : Complete Main
Default : Yes
Forced : Yes

Audio #2
ID : 3
Format :
Format/Info : Digital Theater Systems
Format profile : MA / Core
Codec ID : A_DTS
Duration : 1 h 33 min
Bit rate mode : Variable / Constant
Bit rate : 4 108 kb/s / 1 509 kb/s
Channel(s) : 6 channels
Channel positions : Front: L C R, Side: L R, LFE
Sampling rate : 48.0 kHz
Frame rate : 93.750 FPS (512 SPF)
Bit depth : 24 bits
Compression mode : Lossless / Lossy
Stream size : 2.69 GiB (11%)
Title : Original
Language : English
Default : No
Forced : No

Text
ID : 4
Format : UTF-8
Codec ID : S_TEXT/UTF8
Codec ID/Info : UTF-8 Plain Text
Duration : 1 h 24 min
Bit rate : 44 b/s
Count of elements : 846
Stream size : 27.4 KiB (0%)
Title : Full
Language : English
Default : No
Forced : No

Menu
00:00:00.000 : en:Chapter 1
00:05:48.890 : en:Chapter 2
00:12:17.445 : en:Chapter 3
00:16:28.988 : en:Chapter 4
00:22:49.368 : en:Chapter 5
00:27:16.134 : en:Chapter 6
00:34:32.654 : en:Chapter 7
00:40:00.398 : en:Chapter 8
00:46:51.600 : en:Chapter 9
00:51:58.949 : en:Chapter 10
00:58:57.242 : en:Chapter 11
01:04:10.013 : en:Chapter 12
01:09:56.400 : en:Chapter 13
01:14:52.738 : en:Chapter 14
01:20:44.214 : en:Chapter 15
01:25:59.571 : en:Chapter 16
Скріншоти




Подяка пану AngryBirdsUA за доріжку.
Джерело: &
Особиста оцінка: 0 - не дивився


Золотий реліз (завантажене не впливає на рейтинг)
 Трекер:    Зареєстрований   

Завантажити / скачати фільм українською



відео для новачків



 Зареєстрований:   2018-08-30 18:34
 Розмір:   25.36 GB 
 Оцінка фільму:   7.6/10 (Голосів: 15)
   
Інші релізи
BodnarukR 
Новенький


З нами з: 06.02.13
Востаннє: 17.10.18
Повідомлень: 21

2018-08-20 22:06  
Оце рейтинг... Епічненько.
igoruch93 
Новенький


З нами з: 26.08.12
Востаннє: 19.10.18
Повідомлень: 7

2018-08-23 18:11  
Фільм просто лажовий. Не витрачайте даремно час. Тупішого фільму ще не бачив.
bot 
робот


З нами з: 30.09.07
Востаннє: 26.05.05
Повідомлень: 19962

2018-08-30 18:34  
Тему перенесено з Анонси релізів до форуму Фільми в HD


staf777

Ваш часовий пояс: GMT + 2 Години

Нова тема   Відповісти