План втечі 2 / Escape Plan 2: Hades (2018) 1080p Ukr/Eng | Sub Eng

Нові коментарі

Нова тема   Відповісти
Автор Повідомлення
staf777 
Попереджень: 1
Попереджень: 1 


З нами з: 16.11.16
Востаннє: 21.10.18
Повідомлень: 1648

2018-08-17 17:48  
План втечі 2 / Escape Plan 2: Hades (2018) 1080p Ukr/Eng | Sub Eng

План втечі 2 / Escape Plan 2: Hades (2018) 1080p Ukr/Eng | Sub Eng


Жанр: бойовик, трилер
Країна: Китай, США



Кінокомпанія: Emmett/Furla/Oasis Films (EFO Films), Grindstone Entertainment Group, Leomus Pictures
Режисер: Стівен С. Міллер
Актори: Дейв Батіста, Сільвестр Сталлоне, Джеймі Кінг, Тітус Веллівер, Вес Четхем, Фіфті Сент, Джессі Меткалф, Лідія Халл, Хуан Сяомін

Сюжет:
Рей Бреслін управляє елітною командою фахівців з безпеки, навчених мистецтву втечі з найбільш непроникних в'язниць в світі. Коли його довіреного оперативника Шу Рена викрадають і поміщають в найскладнішу в'язницю з коли-небудь побудованих, повністю комп'ютеризовану з постійно змінною формою, Рей вирішує вистежити його за допомогою своїх колишніх друзів.


Тривалість: 01:33:37
Якість: 1080p
Відео:
кодек:
розмір кадру: 1920x804
бітрейт: 12.0 Mб/с

Аудіо # 1:
мова: українська
переклад: професійний дубльований
кодек: 2.0 (стерео)
бітрейт: 192 кб/с
примітка: Ця версія відрізняється від прокатної - вона коротша на 2 хв.

Аудіо # 2:
мова: англійська
переклад: оригінал
кодек: 5.1
бітрейт: 640 кб/с

Субтитри:
мова: англійська
тип: програмні (м'які)
формат: *.srt
Info
General
Unique ID : 212297385659326905057917753819411080914 (0x9FB6FD3D3C8061E5619BBB45442566D2)
Complete name : K:\Escape Plan 2 Hades (2018) 1080 [UKR_ENG][Hurtom].
Format :
Format version : Version 4 / Version 2
File size : 8.39 GiB
Duration : 1 h 33 min
Overall bit rate : 12.8 Mb/s
Movie name : Escape Plan 2: Hades (2018) 1080 [UKR_ENG][Hurtom]
Encoded date : UTC 2018-08-30 04:47:14
Writing application : v24.0.0 ('Beyond The Pale') 64-bit
Writing library : libebml v1.3.6 + v1.4.9
Cover : Yes
Attachments : cover

Video
ID : 1
Format : AVC
Format/Info : Advanced Video Codec
Format profile : [email protected]
Format settings : CABAC / 5 Ref Frames
Format settings, CABAC : Yes
Format settings, ReFrames : 5 frames
Codec ID : V_MPEG4/ISO/AVC
Duration : 1 h 33 min
Bit rate : 12.0 Mb/s
Width : 1 920 pixels
Height : 804 pixels
Display aspect ratio : 2.40:1
Frame rate mode : Constant
Frame rate : 23.976 (24000/1001) FPS
Color space : YUV
Chroma subsampling : 4:2:0
Bit depth : 8 bits
Scan type : Progressive
Bits/(Pixel*Frame) : 0.324
Stream size : 7.84 GiB (93%)
Writing library : core 148 r2705 3f5ed56
Encoding settings : cabac=1 / ref=5 / deblock=1:-2:-2 / analyse=0x3:0x133 / me=umh / subme=11 / psy=1 / psy_rd=1.20:0.20 / mixed_ref=1 / me_range=32 / chroma_me=1 / trellis=2 / 8x8dct=1 / cqm=0 / deadzone=21,11 / fast_pskip=0 / chroma_qp_offset=-3 / threads=12 / lookahead_threads=2 / sliced_threads=0 / nr=0 / decimate=0 / interlaced=0 / bluray_compat=0 / constrained_intra=0 / bframes=8 / b_pyramid=2 / b_adapt=2 / b_bias=0 / direct=3 / weightb=1 / open_gop=0 / weightp=2 / keyint=240 / keyint_min=23 / scenecut=40 / intra_refresh=0 / rc_lookahead=50 / rc=2pass / mbtree=0 / bitrate=12000 / ratetol=1.0 / qcomp=0.60 / qpmin=0 / qpmax=51 / qpstep=4 / cplxblur=20.0 / qblur=0.5 / vbv_maxrate=50000 / vbv_bufsize=62500 / nal_hrd=none / filler=0 / ip_ratio=1.40 / pb_ratio=1.30 / aq=3:0.80
Language : English
Default : Yes
Forced : No

Audio #1
ID : 2
Format : AC-3
Format/Info : Audio Coding 3
Codec ID : A_AC3
Duration : 1 h 33 min
Bit rate mode : Constant
Bit rate : 192 kb/s
Channel(s) : 2 channels
Channel positions : Front: L R
Sampling rate : 48.0 kHz
Frame rate : 31.250 FPS (1536 SPF)
Bit depth : 16 bits
Compression mode : Lossy
Stream size : 129 MiB (1%)
Title : 2.0 @ 192 kbps
Language : Ukrainian
Service kind : Complete Main
Default : Yes
Forced : Yes

Audio #2
ID : 3
Format : AC-3
Format/Info : Audio Coding 3
Codec ID : A_AC3
Duration : 1 h 33 min
Bit rate mode : Constant
Bit rate : 640 kb/s
Channel(s) : 6 channels
Channel positions : Front: L C R, Side: L R, LFE
Sampling rate : 48.0 kHz
Frame rate : 31.250 FPS (1536 SPF)
Bit depth : 16 bits
Compression mode : Lossy
Stream size : 429 MiB (5%)
Title : Original
Language : English
Service kind : Complete Main
Default : No
Forced : No

Text #1
ID : 4
Format : UTF-8
Codec ID : S_TEXT/UTF8
Codec ID/Info : UTF-8 Plain Text
Duration : 1 h 24 min
Bit rate : 44 b/s
Count of elements : 846
Stream size : 27.4 KiB (0%)
Title : Full
Language : English
Default : No
Forced : No

Text #2
ID : 5
Format : UTF-8
Codec ID : S_TEXT/UTF8
Codec ID/Info : UTF-8 Plain Text
Duration : 1 h 24 min
Bit rate : 47 b/s
Count of elements : 939
Stream size : 29.7 KiB (0%)
Title : SDH
Language : English
Default : No
Forced : No

Menu
00:00:00.000 : en:00:00:00.000
00:05:48.890 : en:00:05:48.890
00:12:17.445 : en:00:12:17.445
00:16:28.988 : en:00:16:28.988
00:22:49.368 : en:00:22:49.368
00:27:16.134 : en:00:27:16.134
00:34:32.654 : en:00:34:32.654
00:40:00.398 : en:00:40:00.398
00:46:51.600 : en:00:46:51.600
00:51:58.949 : en:00:51:58.949
00:58:57.242 : en:00:58:57.242
01:04:10.013 : en:01:04:10.013
01:09:56.400 : en:01:09:56.400
01:14:52.738 : en:01:14:52.738
01:20:44.214 : en:01:20:44.214
01:25:59.571 : en:01:25:59.571
Скріншоти




Подяка пану AngryBirdsUA за доріжку.
Джерело: &
Особиста оцінка: 0 - не дивився


 Трекер:    Зареєстрований   

Завантажити / скачати фільм українською



відео для новачків



 Зареєстрований:   2018-08-30 08:05
 Розмір:   8.39 GB 
 Оцінка фільму:   8.4/10 (Голосів: 11)
   
Інші релізи
bot 
робот


З нами з: 30.09.07
Востаннє: 26.05.05
Повідомлень: 19984

2018-08-17 17:49  
Тему перенесено з Фільми в HD до форуму Анонси релізів


staf777

oster_ok 
Відео Гуртом - підтримка та поширення
Відео Гуртом - підтримка та поширення


З нами з: 20.11.11
Востаннє: 21.10.18
Повідомлень: 125

2018-08-17 22:27  
коли планується реліз?
P.S. і чому на imdb такий рейтинг низький? фільм і справді такий погани?

Modem_Evil 
Новенький


З нами з: 15.09.16
Востаннє: 21.10.18
Повідомлень: 1

2018-08-20 23:11  
Жахливий фільм. Не раджу нікому(
bot 
робот


З нами з: 30.09.07
Востаннє: 26.05.05
Повідомлень: 19984

2018-08-30 08:05  
Тему перенесено з Анонси релізів до форуму Фільми в HD


staf777

staf777 
Попереджень: 1
Попереджень: 1 


З нами з: 16.11.16
Востаннє: 21.10.18
Повідомлень: 1648

2018-08-30 08:08  
Ремукс вечором
Vicarious 
Новенький


З нами з: 09.01.18
Востаннє: 21.10.18
Повідомлень: 19

2018-08-30 09:06  
Блін, ну чому на такі тупі фільми з таким рейтингом є професійний дубляж, а на достойні фільми тільки багатоголосий?
Mykolaiko 
Новенький


З нами з: 09.12.08
Востаннє: 21.10.18
Повідомлень: 5

2018-08-31 09:44  
ніби виробник Асилум, по першому вибуху зразу поняв шо то буде за кіно)
Panther2214 
Свій


З нами з: 29.09.17
Востаннє: 21.10.18
Повідомлень: 115

2018-08-31 22:37  
Фільм ніякий, таке враження що знімальний майданчик, тобто в'язниця - дешевий нічний бордель зі світлодіодними дзеркалами, мабуть економили на всьому, не у підвалі знято фільм? Перша частина набагато краща і навіщо було знімати другу, і як не варіант, є натяк на продовження третьої.... Один плюс в тому якісний дубляж та задум виходу із в'язниці - це все про фільм і тягне ледве на одиницю... Я просто у шоці, немає слів, жах......
Roman7Fedorak 
Свій


З нами з: 30.03.12
Востаннє: 21.10.18
Повідомлень: 91

2018-09-01 08:21  
рідкісне гофно , Слай підкачав Sad (1)
Ваш часовий пояс: GMT + 2 Години

Нова тема   Відповісти