Знахар / Medicine Man (1992) 720p 2xUkr/Eng

Нові коментарі

Нова тема   Відповісти
Автор Повідомлення
Anonymous 







2018-08-17 17:09  
Знахар / Medicine Man (1992) 720p 2xUkr/Eng

Знахар / Medicine Man (1992) 720p 2xUkr/Eng


Жанр: мелодрама, пригодницький
Країна: США



Кінокомпанія: Cinergi Pictures Entertainment
Режисер: Джон МакТірнан
Актори: Шон Коннері, Лоррейн Бракко , Жозе Вілкер, Родольфо Де Александр, Елиас Монтейру Да Сілва, Анджело Барра Морейра, Хосе Лават

Сюжет:
Талановитий учений все життя шукає ліки проти раку. Для цього він забирається на край світу, в амазонські джунглі. Втративши зв'язок із зовнішнім світом, знахар полює за панацеєю проти смертельної хвороби в непрохідних лісах. У цей момент компанія, що фінансує його діяльність, посилає до Бразилії свого представника, яка повинна на місці розібратися в що відбувається. Їхні стосунки з первісної ворожнечі перетворюються на глибоке романтичне почуття. Але коли вони впритул підходять до довгожданої розгадки, на їх шляху встають жорстокі ділки. Життя мільйонів опиняються в руках тих, кому вона абсолютно байдужа.


Тривалість: 01:45:19
Якість: 720p
Відео:
кодек:
розмір кадру: 1280х548
бітрейт: 4000 кб/с

Аудіо # 1:
мова: українська
переклад: багатоголосий закадровий
кодек: 2.0
бітрейт: 192 кб/с

Аудіо # 2:
мова: українська
переклад: багатоголосий закадровий
кодек: 2.0
бітрейт: 192 кб/с

Аудіо # 3:
мова: англійська
переклад: оригінал
кодек: 2.0
бітрейт: 160 кб/с
Info
General
Unique ID : 176032738540673492580191048598213335511 (0x846EAC179465433883147BB9526799D7)
Format :
Format version : Version 4 / Version 2
File size : 3.45 GiB
Duration : 1 h 45 min
Overall bit rate : 4 694 kb/s
Encoded date : UTC 2018-08-17 14:04:49
Writing application : v6.1.0 ('Old Devil') built on Mar 4 2013 09:10:42
Writing library : libebml v1.3.0 + v1.4.0

Video
ID : 1
Format : AVC
Format/Info : Advanced Video Codec
Format profile : [email protected]
Format settings : 2 Ref Frames
Format settings, CABAC : No
Format settings, ReFrames : 2 frames
Codec ID : V_MPEG4/ISO/AVC
Duration : 1 h 45 min
Width : 1 280 pixels
Height : 548 pixels
Display aspect ratio : 2.35:1
Frame rate mode : Constant
Frame rate : 23.976 FPS
Color space : YUV
Chroma subsampling : 4:2:0
Bit depth : 8 bits
Scan type : Progressive
Language : English
Default : Yes
Forced : No
Color range : Limited
Color primaries : BT.709
Transfer characteristics : BT.709
Matrix coefficients : BT.709

Audio #1
ID : 2
Format : AC-3
Format/Info : Audio Coding 3
Codec ID : A_AC3
Duration : 1 h 45 min
Bit rate mode : Constant
Bit rate : 192 kb/s
Channel(s) : 2 channels
Channel positions : Front: L R
Sampling rate : 48.0 kHz
Frame rate : 31.250 FPS (1536 SPF)
Bit depth : 16 bits
Compression mode : Lossy
Stream size : 145 MiB (4%)
Title : UKR (1+1)
Language : Ukrainian
Service kind : Complete Main
Default : Yes
Forced : Yes

Audio #2
ID : 3
Format : AC-3
Format/Info : Audio Coding 3
Codec ID : A_AC3
Duration : 1 h 45 min
Bit rate mode : Constant
Bit rate : 192 kb/s
Channel(s) : 2 channels
Channel positions : Front: L R
Sampling rate : 48.0 kHz
Frame rate : 31.250 FPS (1536 SPF)
Bit depth : 16 bits
Compression mode : Lossy
Stream size : 145 MiB (4%)
Title : UKR (Новий)
Language : Ukrainian
Service kind : Complete Main
Default : No
Forced : No

Audio #3
ID : 4
Format :
Format/Info : Advanced Audio Codec
Format profile : LC
Codec ID : A_AAC-2
Duration : 1 h 45 min
Channel(s) : 2 channels
Channel positions : Front: L R
Sampling rate : 48.0 kHz
Frame rate : 46.875 FPS (1024 SPF)
Compression mode : Lossy
Title : 2.0 @ 160 kbps
Language : English
Default : No
Forced : No

Menu
00:00:00.000 : en:1
00:00:13.000 : en:2
00:11:35.000 : en:3
00:19:42.000 : en:4
00:31:01.000 : en:5
00:36:49.000 : en:6
00:44:17.000 : en:7
00:57:16.000 : en:8
01:03:42.000 : en:9
01:13:37.000 : en:10
01:25:59.000 : en:11
01:33:05.000 : en:12
01:42:04.000 : en:13
Скріншоти






За доріжку від 1+1 дякую п. JACKUS, olgaya
За доріжку від Нового дякую п. xslim, Arsenfpu
Особиста подяка пану denixx за надану матеріальну допомогу на підтримку цього і майбутніх релізів.
Джерело:


Срібний реліз (на рейтинг впливає 50% завантаженого)
 Трекер:    Зареєстрований   

Завантажити / скачати фільм українською



відео для новачків



 Зареєстрований:   2018-08-17 17:09
 Розмір:   3.45 GB 
 Оцінка фільму:   10/10 (Голосів: 2)
   
Інші релізи
   Знахар / Medicine Man (1992) AVC 2xUkr/Eng Arsenfpu  4 / 0   2.24 GB   2018-01-17 16:55 
   Знахар / Medicine Man (1992) JACKUS  3 / 0   1.46 GB   2010-06-14 22:03 
Ваш часовий пояс: GMT + 2 Години

Нова тема   Відповісти