Лігво Монстра / Bad Samaritan (2018) Remux 1080p Ukr/Eng | Sub Eng

Нові коментарі

Нова тема   Відповісти
Автор Повідомлення
staf777 
Попереджень: 1
Попереджень: 1 


З нами з: 16.11.16
Востаннє: 21.10.18
Повідомлень: 1648

2018-08-17 16:49  
Лігво Монстра / Bad Samaritan (2018) Remux 1080p Ukr/Eng | Sub Eng

Лігво Монстра / Bad Samaritan (2018) Remux 1080p Ukr/Eng | Sub Eng

Українські постери:



Жанр: жахи, трилер
Країна: США



Кінокомпанія: Electric Entertainment
Режисер: Дін Девлін
Актори: Девід Теннант, Керрі Кондон, Роберт Шіен, Ліза Бреннер, Роб Негл, Тоні Дуп

Сюжет:
Двоє молодих людей працюють паркувальниками в дорогому ресторані. Вони придумують розумний спосіб шахрайства: грабують будинки, поки люди їдять. Справи йдуть добре, поки одного разу хлопці не вирішують залізти до оселі загадкового та ексцентричного багатія. Прокравшись до його будинку, вони розуміють, що господар силоміць тримає у полоні жінку. Злякавшись побаченого, злодій тікає і звертається до поліції. Та правоохоронцям не вдається знайти жінку, а зловісний багатій починає полювання на самого грабіжника.


Тривалість: 01:50:10
Якість: Remux 1080p
Відео:
кодек:
розмір кадру: 1920x1080
бітрейт: 24,9 Mб/с

Аудіо # 1:
мова: українська
переклад: професійний дубльований
кодек: 2.0
бітрейт: 192 кб/с

Аудіо # 2:
мова: англійська
переклад: оригінал
кодек: -HD MA 5.1
бітрейт: 2672 кб/с

Субтитри:
мова: англійська
тип: програмні (м'які)
формат: *.srt
Info
General
Unique ID : 260797422702267771372271538521764733376 (0xC433C1AF3C48BDBF5AAA183820CF21C0)
Complete name : K:\Bad Samaritan (2018) Remux 1080p [UKR_ENG] [Hurtom].
Format :
Format version : Version 4 / Version 2
File size : 21.3 GiB
Duration : 1 h 50 min
Overall bit rate mode : Variable
Overall bit rate : 27.7 Mb/s
Movie name : Bad Samaritan (2018) Remux 1080p [UKR_ENG] [Hurtom]
Encoded date : UTC 2018-08-17 20:04:20
Writing application : v24.0.0 ('Beyond The Pale') 64-bit
Writing library : libebml v1.3.6 + v1.4.9
Cover : Yes
Attachments : cover.jpg

Video
ID : 1
Format : AVC
Format/Info : Advanced Video Codec
Format profile : [email protected]
Format settings : CABAC / 2 Ref Frames
Format settings, CABAC : Yes
Format settings, ReFrames : 2 frames
Format settings, GOP : M=1, N=10
Codec ID : V_MPEG4/ISO/AVC
Duration : 1 h 50 min
Bit rate mode : Variable
Bit rate : 24.9 Mb/s
Width : 1 920 pixels
Height : 1 080 pixels
Display aspect ratio : 16:9
Frame rate mode : Constant
Frame rate : 23.976 (24000/1001) FPS
Color space : YUV
Chroma subsampling : 4:2:0
Bit depth : 8 bits
Scan type : Progressive
Bits/(Pixel*Frame) : 0.500
Stream size : 19.1 GiB (90%)
Language : English
Default : Yes
Forced : No

Audio #1
ID : 2
Format : AC-3
Format/Info : Audio Coding 3
Codec ID : A_AC3
Duration : 1 h 50 min
Bit rate mode : Constant
Bit rate : 192 kb/s
Channel(s) : 2 channels
Channel positions : Front: L R
Sampling rate : 48.0 kHz
Frame rate : 31.250 FPS (1536 SPF)
Bit depth : 16 bits
Compression mode : Lossy
Stream size : 151 MiB (1%)
Title : [UA-DUB]
Language : Ukrainian
Service kind : Complete Main
Default : Yes
Forced : Yes

Audio #2
ID : 3
Format :
Format/Info : Digital Theater Systems
Format profile : MA / Core
Codec ID : A_DTS
Duration : 1 h 50 min
Bit rate mode : Variable / Constant
Bit rate : 2 672 kb/s / 1 509 kb/s
Channel(s) : 6 channels
Channel positions : Front: L C R, Side: L R, LFE
Sampling rate : 48.0 kHz
Frame rate : 93.750 FPS (512 SPF)
Bit depth : 24 bits
Compression mode : Lossless / Lossy
Stream size : 2.06 GiB (10%)
Title : Original
Language : English
Default : No
Forced : No

Text
ID : 4
Format : UTF-8
Codec ID : S_TEXT/UTF8
Codec ID/Info : UTF-8 Plain Text
Duration : 1 h 45 min
Bit rate : 49 b/s
Count of elements : 1180
Stream size : 38.0 KiB (0%)
Language : English
Default : No
Forced : No

Menu
00:00:00.000 : en:00:00:00.000
00:06:21.047 : en:00:06:21.047
00:12:34.921 : en:00:12:34.921
00:20:14.171 : en:00:20:14.171
00:31:01.485 : en:00:31:01.485
00:39:04.133 : en:00:39:04.133
00:44:44.599 : en:00:44:44.599
00:48:39.917 : en:00:48:39.917
00:56:36.476 : en:00:56:36.476
01:02:38.880 : en:01:02:38.880
01:10:56.627 : en:01:10:56.627
01:17:26.100 : en:01:17:26.100
01:23:51.818 : en:01:23:51.818
01:27:36.418 : en:01:27:36.418
01:33:58.633 : en:01:33:58.633
01:41:45.099 : en:01:41:45.099
Скріншоти:





За допомогу в створені реліза дякую пану 11FrYkT
Подяка пану AngryBirdsUA за доріжку та пану Hanway за синхронізацію.
Джерело: &
Особиста оцінка: 0 - не дивився


Золотий реліз (завантажене не впливає на рейтинг)
 Трекер:    Зареєстрований   

Завантажити / скачати фільм українською



відео для новачків



 Зареєстрований:   2018-08-17 23:41
 Розмір:   21.34 GB 
 Оцінка фільму:   8.4/10 (Голосів: 11)
   
Інші релізи
   Лігво Монстра / Bad Samaritan (2018) antik_2008  42 / 0   1.31 GB   2018-08-18 11:47 
   Лігво Монстра / Bad Samaritan (2018) Ukr/Eng antik_2008  4 / 0   2.03 GB   2018-08-18 11:23 
   Лігво Монстра / Bad Samaritan (2018) 1080p Ukr/Eng | Sub Eng staf777  10 / 0   7.31 GB   2018-08-17 22:59 
   Лігво Монстра / Bad Samaritan (2018) 720p Ukr/Eng | Sub Eng 11FrYkT  17 / 0   3.99 GB   2018-08-17 21:36 
   Лігво Монстра / Bad Samaritan (2018) AVC Ukr/Eng | Sub Eng 11FrYkT  35 / 0   1.77 GB   2018-08-17 21:34 
bot 
робот


З нами з: 30.09.07
Востаннє: 26.05.05
Повідомлень: 19984

2018-08-17 23:41  
Тему перенесено з Анонси релізів до форуму Фільми в HD


staf777

Kiara 
Свій


З нами з: 18.08.10
Востаннє: 21.10.18
Повідомлень: 124

2018-08-25 02:38  
Шановний staf777... не знаю скільки людей подивилось цей реліз... Але у мене проблеми із зображенням.. Те що відео хорошої якості - сумнівів немає, проте зображення поділене на половину екрана по горизонталі, і нижня половина при русі камери відео - відстає ... і це замітно... я не подивилася першу хвилину фільму... і вимкнула, бо це неможливо дивитись, мозок не сприймає такого... Напрягає.
Можливо мій старий комп не стягує.. але, можливо саме відео скачалось якось... не так.
Надіюсь інші юзери підтвердять або заперечать. У будь-якому разі.. для мене цей реліз поганий Sad (1) А так хотілося подивитися в добрій якості ...

Uberwinder 
VIP


З нами з: 18.11.16
Востаннє: 21.10.18
Повідомлень: 267

2018-08-25 08:05  
Повністю фільм поки що не дивився, але щойно переглянув декілька сцен з різних частин фільму - відео абсолютно нормальне. То у Вас якісь проблеми або з плейером, або з кодеками у системі.
Lyolic 
VIP


З нами з: 04.08.09
Востаннє: 21.10.18
Повідомлень: 305

2018-08-25 13:20  
Kiara
Uberwinder
Дивився повністю, ніяких проблем ні з відео ні зі звуком немає.

Kiara 
Свій


З нами з: 18.08.10
Востаннє: 21.10.18
Повідомлень: 124

2018-08-25 15:33  
Хм.... Диво... Але дякую вам, що написали.. Значить проблема у мене...
deemonmeister 
Новенький


З нами з: 24.02.15
Востаннє: 18.10.18
Повідомлень: 17

2018-08-25 17:19  
Черговий "шедевральний" переклад назви...
Kiara 
Свій


З нами з: 18.08.10
Востаннє: 21.10.18
Повідомлень: 124

2018-08-25 23:35  
Це офіційний український переклад. Так, він не є слово-в-слово, проте для української аудиторії він кращий. Я розумію, що оригінальна назва "поганий самаритянит", проте, це не найгірше. Дуже багато країн називають фільми трохи по-іншому, ніж оригінал і найчастіше вони її(назву) пристосовують до сюжету.
Скажу я вам, що назва ".. самаритянин" не зрозуміла пересічному глядачу. Багато моїх знайомих, включно зі мною, не зрозуміли до чого тут самаритянин і хто в його ролі. І я не соромлюсь сказати що я не розумію оригінальної назви. Ба навіть не хочу думати-гадати чого так назвали. Бо мені українська назва подобається в 100 раз більше.
В кожного своя думка, проте трохи бісить, коли пишуть про невідповідність назви, коли вона навіть краща. Я знаю що говорю, бо не раз для української аудиторії міняли назву, і я пам*ятаю, що були фільми, які назвали гірше ніж оригінал. Але це не про цей фільм. Бо назва більш ніж відповідна.
Хтось погодиться з моїми словами, хтось - ні. Право вибору.

Ваш часовий пояс: GMT + 2 Години

Нова тема   Відповісти