Лігво Монстра / Bad Samaritan (2018) 1080p Ukr/Eng | Sub Eng

Нові коментарі

Нова тема   Відповісти
Автор Повідомлення
staf777 
Відео Гуртом - підтримка та поширення
Відео Гуртом - підтримка та поширення


З нами з: 16.11.16
Востаннє: 25.05.19
Повідомлень: 2382

2018-08-17 16:46  
Лігво Монстра / Bad Samaritan (2018) 1080p Ukr/Eng | Sub Eng

Лігво Монстра / Bad Samaritan (2018) 1080p Ukr/Eng | Sub Eng

Жанр: жахи, трилер
Країна: США



Кінокомпанія: Electric Entertainment
Режисер: Дін Девлін
Актори: Девід Теннант, Керрі Кондон, Роберт Шіен, Ліза Бреннер, Роб Негл, Тоні Дуп

Сюжет:
Двоє молодих людей працюють паркувальниками в дорогому ресторані. Вони придумують розумний спосіб шахрайства: грабують будинки, поки люди їдять. Справи йдуть добре, поки одного разу хлопці не вирішують залізти до оселі загадкового та ексцентричного багатія. Прокравшись до його будинку, вони розуміють, що господар силоміць тримає у полоні жінку. Злякавшись побаченого, злодій тікає і звертається до поліції. Та правоохоронцям не вдається знайти жінку, а зловісний багатій починає полювання на самого грабіжника.


Тривалість: 01:50:10
Якість: 1080p
Відео:
кодек:
розмір кадру: 1920x806
бітрейт: 8664 кб/с

Аудіо # 1:
мова: українська
переклад: професійний дубльований
кодек: 2.0
бітрейт: 192 кб/с

Аудіо # 2:
мова: англійська
переклад: оригінал
кодек: 5.1
бітрейт: 640 кб/с

Субтитри:
мова: англійська
тип: програмні (м'які)
формат: *.srt
Info
General
Unique ID : 140610057348710333515499536815595719915 (0x69C88311F8F6906D426EDD76C81C0CEB)
Complete name : K:\Bad Samaritan (2018) 1080p [UKR_ENG] [Hurtom] .
Format :
Format version : Version 4 / Version 2
File size : 7.31 GiB
Duration : 1 h 50 min
Overall bit rate : 9 498 kb/s
Movie name : Bad Samaritan (2018) 1080p [UKR_ENG] [Hurtom]
Encoded date : UTC 2018-08-17 19:40:50
Writing application : v24.0.0 ('Beyond The Pale') 64-bit
Writing library : libebml v1.3.6 + v1.4.9
Cover : Yes
Attachments : cover.jpg

Video
ID : 1
Format : AVC
Format/Info : Advanced Video Codec
Format profile : [email protected]
Format settings : CABAC / 5 Ref Frames
Format settings, CABAC : Yes
Format settings, ReFrames : 5 frames
Codec ID : V_MPEG4/ISO/AVC
Duration : 1 h 50 min
Bit rate : 8 664 kb/s
Width : 1 920 pixels
Height : 806 pixels
Display aspect ratio : 2.40:1
Frame rate mode : Constant
Frame rate : 23.976 (24000/1001) FPS
Color space : YUV
Chroma subsampling : 4:2:0
Bit depth : 8 bits
Scan type : Progressive
Bits/(Pixel*Frame) : 0.234
Stream size : 6.67 GiB (91%)
Writing library : core 148 r2705 3f5ed56
Encoding settings : cabac=1 / ref=5 / deblock=1:-2:-2 / analyse=0x3:0x133 / me=umh / subme=11 / psy=1 / psy_rd=1.20:0.05 / mixed_ref=1 / me_range=48 / chroma_me=1 / trellis=2 / 8x8dct=1 / cqm=0 / deadzone=21,11 / fast_pskip=0 / chroma_qp_offset=-3 / threads=12 / lookahead_threads=2 / sliced_threads=0 / nr=0 / decimate=0 / interlaced=0 / bluray_compat=0 / constrained_intra=0 / bframes=8 / b_pyramid=2 / b_adapt=2 / b_bias=0 / direct=3 / weightb=1 / open_gop=0 / weightp=2 / keyint=240 / keyint_min=23 / scenecut=40 / intra_refresh=0 / rc_lookahead=50 / rc=2pass / mbtree=0 / bitrate=8664 / ratetol=1.0 / qcomp=0.60 / qpmin=0 / qpmax=51 / qpstep=4 / cplxblur=20.0 / qblur=0.5 / vbv_maxrate=50000 / vbv_bufsize=62500 / nal_hrd=none / filler=0 / ip_ratio=1.40 / pb_ratio=1.30 / aq=3:0.80
Language : English
Default : Yes
Forced : No

Audio #1
ID : 2
Format : AC-3
Format/Info : Audio Coding 3
Codec ID : A_AC3
Duration : 1 h 50 min
Bit rate mode : Constant
Bit rate : 192 kb/s
Channel(s) : 2 channels
Channel positions : Front: L R
Sampling rate : 48.0 kHz
Frame rate : 31.250 FPS (1536 SPF)
Bit depth : 16 bits
Compression mode : Lossy
Stream size : 151 MiB (2%)
Title : [UA-DUB]
Language : Ukrainian
Service kind : Complete Main
Default : Yes
Forced : Yes

Audio #2
ID : 3
Format : AC-3
Format/Info : Audio Coding 3
Codec ID : A_AC3
Duration : 1 h 50 min
Bit rate mode : Constant
Bit rate : 640 kb/s
Channel(s) : 6 channels
Channel positions : Front: L C R, Side: L R, LFE
Sampling rate : 48.0 kHz
Frame rate : 31.250 FPS (1536 SPF)
Bit depth : 16 bits
Compression mode : Lossy
Stream size : 504 MiB (7%)
Title : Original
Language : English
Service kind : Complete Main
Default : No
Forced : No

Text
ID : 4
Format : UTF-8
Codec ID : S_TEXT/UTF8
Codec ID/Info : UTF-8 Plain Text
Duration : 1 h 45 min
Bit rate : 49 b/s
Count of elements : 1180
Stream size : 38.0 KiB (0%)
Language : English
Default : No
Forced : No

Menu
00:00:00.000 : en:00:00:00.000
00:06:21.047 : en:00:06:21.047
00:12:34.921 : en:00:12:34.921
00:20:14.171 : en:00:20:14.171
00:31:01.485 : en:00:31:01.485
00:39:04.133 : en:00:39:04.133
00:44:44.599 : en:00:44:44.599
00:48:39.917 : en:00:48:39.917
00:56:36.476 : en:00:56:36.476
01:02:38.880 : en:01:02:38.880
01:10:56.627 : en:01:10:56.627
01:17:26.100 : en:01:17:26.100
01:23:51.818 : en:01:23:51.818
01:27:36.418 : en:01:27:36.418
01:33:58.633 : en:01:33:58.633
01:41:45.099 : en:01:41:45.099
Скріншоти





Підтримати купівлю інших фільмів можна тут

За допомогу в створені реліза дякую пану 11FrYkT
Подяка пану AngryBirdsUA за доріжку та пану Hanway за синхронізацію.
Джерело: &
Особиста оцінка: 0 - не дивився


 Трекер:    Зареєстрований   

Завантажити / скачати фільм українською



відео для новачків



 Зареєстрований:   2018-08-17 22:59
 Розмір:   7.31 GB 
 Оцінка фільму:   8.7/10 (Голосів: 18)
   
Інші релізи
   Лігво Монстра / Bad Samaritan (2018) antik_2008  16 / 0   1.31 GB   2018-08-18 11:47 
   Лігво Монстра / Bad Samaritan (2018) Ukr/Eng antik_2008  5 / 0   2.03 GB   2018-08-18 11:23 
   Лігво Монстра / Bad Samaritan (2018) Remux 1080p Ukr/Eng | Sub Eng staf777  4 / 0   21.34 GB   2018-08-17 23:41 
   Лігво Монстра / Bad Samaritan (2018) 720p Ukr/Eng | Sub Eng 11FrYkT  9 / 0   3.99 GB   2018-08-17 21:36 
   Лігво Монстра / Bad Samaritan (2018) AVC Ukr/Eng | Sub Eng 11FrYkT  19 / 0   1.77 GB   2018-08-17 21:34 
bot 
робот


З нами з: 30.09.07
Востаннє: 26.05.05
Повідомлень: 21384

2018-08-17 16:47  
Тему перенесено з Фільми в HD до форуму Анонси релізів


staf777

bot 
робот


З нами з: 30.09.07
Востаннє: 26.05.05
Повідомлень: 21384

2018-08-17 22:59  
Тему перенесено з Анонси релізів до форуму Фільми в HD


staf777

Ваш часовий пояс: GMT + 2 Години

Нова тема   Відповісти