Марс атакує! / Mars Attacks! (1996) 1080p Ukr/Eng | Sub Eng

Нові коментарі

Нова тема   Відповісти
Автор Повідомлення
Anonymous 







2018-08-17 16:41  
Марс атакує! / Mars Attacks! (1996) 1080p Ukr/Eng | Sub Eng

Марс атакує! / Mars Attacks! (1996) 1080p Ukr/Eng | Sub Eng


Жанр: комедія, фантастика
Країна: США



Кінокомпанія: Tim Burton Productions, Warner Bros.
Режисер: Тім Бартон / Timothy Burton
Актори: Джек Ніколсон /Jack Nicholson, Гленн Клоуз /Glenn Close, Аннетт Бенінг /Annette Bening, Пірс Броснан /Pierce Brosnan, Денні Де Віто /Danny De Vito, Мартін Шорт /Martin Short, Сара Джессіка Паркер /Sarah Jessica Parker, Майкл Джей Фокс /Michael J. Fox, Род Стайгер /Rod Steiger, Том Джонс, Лукас Хаас /Lukas Haas, Наталі Портман /Natalie Portman, Джим Браун /Jim Brown, Ліза Марі /Lisa Marie та інші

Сюжет:
На нашу планету напали. Марсіани, безпристрасні і бездушні маленькі зелені створіння, висаджуються в пустелі зі своїх космічних кораблів, а потім наступають на всіх напрямках. Столичний Вашингтон, Лас-Вегас і інші міста піддаються потужним вибухам, навколо лише одна розруха…

Президент США закликає командування своїх збройних сил застосувати всі міри та засоби, проте думки самих командуючих, двох генералів робіглися. «Розбити і повернути їх на Марс!», — вважає генерал Деккер. «Домовитись про мир», — заперечує генерал Кейсі.

Подальші події повинні визначити, хто ж із них правий.


Тривалість: 01:45:45
Якість:
Відео:
кодек:
розмір кадру: 1920х796
бітрейт: 11 Мб/с

Аудіо # 1:
мова: українська
переклад: багатоголосий закадровий
кодек: 5.1
бітрейт: 1509 кб/с

Аудіо # 2:
мова: англійська
переклад: оригінал
кодек: 5.1
бітрейт: 1509 кб/с

Субтитри:
мова: англійська
тип: програмні (м'які)
формат: *.srt
Info
General
Unique ID : 228925852141558873229446196179825704315 (0xAC3983EF2E9E82D8BEB6F80860B9BD7B)
Format :
Format version : Version 4 / Version 2
File size : 10.3 GiB
Duration : 1 h 45 min
Overall bit rate : 14.0 Mb/s
Encoded date : UTC 2018-08-17 13:33:27
Writing application : v6.1.0 ('Old Devil') built on Mar 4 2013 09:10:42
Writing library : libebml v1.3.0 + v1.4.0

Video
ID : 1
Format : AVC
Format/Info : Advanced Video Codec
Format profile : [email protected]
Format settings : CABAC / 5 Ref Frames
Format settings, CABAC : Yes
Format settings, ReFrames : 5 frames
Codec ID : V_MPEG4/ISO/AVC
Duration : 1 h 45 min
Bit rate : 11.0 Mb/s
Width : 1 920 pixels
Height : 796 pixels
Display aspect ratio : 2.40:1
Frame rate mode : Constant
Frame rate : 23.976 (24000/1001) FPS
Color space : YUV
Chroma subsampling : 4:2:0
Bit depth : 8 bits
Scan type : Progressive
Bits/(Pixel*Frame) : 0.300
Stream size : 7.91 GiB (76%)
Writing library : core 98 r1629 2e81ce1
Encoding settings : cabac=1 / ref=5 / deblock=1:-3:-3 / analyse=0x3:0x133 / me=umh / subme=10 / psy=1 / psy_rd=0.80:0.00 / mixed_ref=1 / me_range=48 / chroma_me=1 / trellis=2 / 8x8dct=1 / cqm=0 / deadzone=21,11 / fast_pskip=0 / chroma_qp_offset=-2 / threads=12 / sliced_threads=0 / nr=0 / decimate=0 / interlaced=0 / constrained_intra=0 / bframes=6 / b_pyramid=2 / b_adapt=2 / b_bias=0 / direct=3 / weightb=1 / weightp=2 / keyint=250 / keyint_min=25 / scenecut=40 / intra_refresh=0 / rc_lookahead=40 / rc=2pass / mbtree=1 / bitrate=11000 / ratetol=1.0 / qcomp=0.60 / qpmin=10 / qpmax=51 / qpstep=4 / cplxblur=20.0 / qblur=0.5 / ip_ratio=1.40 / aq=1:0.80
Language : English
Default : Yes
Forced : No

Audio #1
ID : 2
Format :
Format/Info : Digital Theater Systems
Codec ID : A_DTS
Duration : 1 h 45 min
Bit rate mode : Constant
Bit rate : 1 509 kb/s
Channel(s) : 6 channels
Channel positions : Front: L C R, Side: L R, LFE
Sampling rate : 48.0 kHz
Frame rate : 93.750 FPS (512 SPF)
Bit depth : 24 bits
Compression mode : Lossy
Stream size : 1.11 GiB (11%)
Title : UKR (Новий)
Language : Ukrainian
Default : Yes
Forced : Yes

Audio #2
ID : 3
Format :
Format/Info : Digital Theater Systems
Codec ID : A_DTS
Duration : 1 h 45 min
Bit rate mode : Constant
Bit rate : 1 509 kb/s
Channel(s) : 6 channels
Channel positions : Front: L C R, Side: L R, LFE
Sampling rate : 48.0 kHz
Frame rate : 93.750 FPS (512 SPF)
Bit depth : 24 bits
Compression mode : Lossy
Stream size : 1.11 GiB (11%)
Language : English
Default : No
Forced : No

Text
ID : 4
Format : UTF-8
Codec ID : S_TEXT/UTF8
Codec ID/Info : UTF-8 Plain Text
Title : ENG
Language : English
Default : No
Forced : No

Menu
00:00:00.000 : en:1
00:01:24.835 : en:2
00:04:01.825 : en:3
00:06:41.192 : en:4
00:09:19.559 : en:5
00:12:40.009 : en:6
00:17:31.801 : en:7
00:21:02.136 : en:8
00:24:05.444 : en:9
00:26:42.309 : en:10
00:27:33.402 : en:11
00:29:00.364 : en:12
00:35:25.123 : en:13
00:43:25.269 : en:14
00:45:12.501 : en:15
00:46:37.003 : en:16
00:47:52.036 : en:17
00:51:44.226 : en:18
00:55:23.695 : en:19
00:57:46.088 : en:20
00:58:30.215 : en:21
00:59:44.873 : en:22
01:04:31.785 : en:23
01:07:28.795 : en:24
01:10:59.172 : en:25
01:12:33.516 : en:26
01:15:22.977 : en:27
01:17:42.658 : en:28
01:19:36.313 : en:29
01:20:58.103 : en:30
01:23:35.969 : en:31
01:25:24.911 : en:32
01:27:09.307 : en:33
01:30:17.120 : en:34
01:30:49.778 : en:35
01:33:58.508 : en:36
01:35:57.085 : en:37
01:40:03.039 : en:38
Скріншоти










За українську доріжку подяка пану 11FrYkT
Подяка somnambula за українізований постер
Особиста подяка пану denixx за надану матеріальну допомогу на підтримку цього і майбутніх релізів.
Джерело:


Срібний реліз (на рейтинг впливає 50% завантаженого)
 Трекер:    Зареєстрований   

Завантажити / скачати фільм українською



відео для новачків



 Зареєстрований:   2018-08-17 16:41
 Розмір:   10.35 GB 
 Оцінка фільму:   9.6/10 (Голосів: 9)
   
Інші релізи
   Марс атакує! / Mars Attacks! (1996) AVC 2xUkr/Eng Arsenfpu  4 / 0   2.39 GB   2020-04-24 19:37 
   Марс атакує! / Mars Attacks! (1996) 1080p H.265 Ukr/Eng | Sub Eng -Star-Lord-  0 / 0   6.27 GB   2019-11-09 12:31 
   Марс атакує! / Mars Attacks! (1996) [MP4, 640x] apvAltisimo  0 / 0   681 MB   2016-06-06 15:06 
   Марс атакує! / Mars Attacks! (1996) patriot2305  5 / 0   1.45 GB   2014-07-20 18:50 
   Марс атакує! / Mars Attacks! (1996) 720p Ukr/Eng | Sub Eng 11FrYkT  5 / 0   5.09 GB   2012-09-22 11:05 
[email protected] 
VIP


З нами з: 25.03.17
Востаннє: 27.09.20
Повідомлень: 552

2018-11-06 00:46  
Смішний, веселий фільм...
Ваш часовий пояс: GMT + 2 Години

Нова тема   Відповісти