К-19 / K-19: The Widowmaker (2002) 720p 2xUkr/Eng | Sub Eng

Нові коментарі

Нова тема   Відповісти
Автор Повідомлення
Anonymous 







2018-08-17 16:26  
К-19 / K-19: The Widowmaker (2002) 720p 2xUkr/Eng | Sub Eng

К-19 / K-19: The Widowmaker (2002) 720p 2xUkr/Eng | Sub Eng


Жанр: драма, історичний, трилер
Країна: США



Кінокомпанія: First Light Production, IMF Internationale Medien und Film GmbH & Co. 2. Produktions KG, Intermedia Films
Режисер: Кетрін Бігелоу / Kathryn Bigelow
Актори: Гаррісон Форд / Harrison Ford, Ліам Нісон / Liam Neeson, Пітер Сарсґаард / Peter Sarsgaard, Крістіан Камарґо / Christian Camargo, Сем Спруелл / Sam Spruell, Пітер Стеббінґс / Peter Stebbings та інші

Сюжет:
1961 рік. Радянський Союз відправляє у води Північної Атлантики свій перший ядерний підводний човен "К-19". Його секретний рейд до берегів потенційного супротивника стає новим кроком в безкомпромісній "холодній війні" двох наддержав. Відважні моряки готові винести будь-які тяготи походу, і тому, коли командир човна наказує екіпажу за всяку ціну усунути серйозну поломку ядерного реактора, підводники мужньо виконують наказ, розуміючи, що йдуть на вірну смерть.


Тривалість: 02:18:05
Якість: 720p
Відео:
кодек:
розмір кадру: 1280х546
бітрейт: 6 146 кб/с

Аудіо # 1:
мова: українська
переклад: багатоголосий закадровий
кодек: 2.0
бітрейт: 192 кб/с

Аудіо # 2:
мова: українська
переклад: багатоголосий закадровий
кодек: 2.0
бітрейт: 192 кб/с

Аудіо # 3:
мова: англійська
переклад: оригінал
кодек: 5.1
бітрейт: 640 кб/с

Аудіо # 4:
мова: англійська (Commentary)
переклад: оригінал
кодек: 2.0
бітрейт: 80 кб/с

Субтитри:
мова: англійська
тип: програмні (м'які)
формат: *.srt
Info
General
Unique ID : 207759816380503613391230905976622783290 (0x9C4D15CD1879882FB24C63879EF99B3A)
Format :
Format version : Version 4 / Version 2
File size : 6.97 GiB
Duration : 2 h 18 min
Overall bit rate : 7 231 kb/s
Encoded date : UTC 2018-08-17 13:19:00
Writing application : v6.1.0 ('Old Devil') built on Mar 4 2013 09:10:42
Writing library : libebml v1.3.0 + v1.4.0

Video
ID : 1
Format : AVC
Format/Info : Advanced Video Codec
Format profile : [email protected]
Format settings : CABAC / 8 Ref Frames
Format settings, CABAC : Yes
Format settings, ReFrames : 8 frames
Codec ID : V_MPEG4/ISO/AVC
Duration : 2 h 18 min
Nominal bit rate : 6 146 kb/s
Width : 1 280 pixels
Height : 546 pixels
Display aspect ratio : 2.35:1
Frame rate mode : Constant
Frame rate : 23.976 (23976/1000) FPS
Color space : YUV
Chroma subsampling : 4:2:0
Bit depth : 8 bits
Scan type : Progressive
Bits/(Pixel*Frame) : 0.367
Title : K-19: The Widowmaker (2002) 720p HDv0T
Writing library : core 94 r1570 d9db8b3
Encoding settings : cabac=1 / ref=8 / deblock=1:-3:-3 / analyse=0x3:0x113 / me=umh / subme=9 / psy=1 / psy_rd=1.00:0.20 / mixed_ref=1 / me_range=48 / chroma_me=1 / trellis=2 / 8x8dct=1 / cqm=0 / deadzone=21,11 / fast_pskip=0 / chroma_qp_offset=-3 / threads=6 / sliced_threads=0 / nr=0 / decimate=0 / interlaced=0 / constrained_intra=0 / bframes=6 / b_pyramid=2 / b_adapt=2 / b_bias=0 / direct=3 / wpredb=1 / wpredp=2 / keyint=250 / keyint_min=25 / scenecut=40 / intra_refresh=0 / rc=2pass / mbtree=0 / bitrate=6146 / ratetol=1.0 / qcomp=0.60 / qpmin=10 / qpmax=51 / qpstep=4 / cplxblur=20.0 / qblur=0.5 / ip_ratio=1.40 / pb_ratio=1.30 / aq=1:0.60
Language : English
Default : Yes
Forced : No

Audio #1
ID : 2
Format : AC-3
Format/Info : Audio Coding 3
Codec ID : A_AC3
Duration : 2 h 18 min
Bit rate mode : Constant
Bit rate : 192 kb/s
Channel(s) : 2 channels
Channel positions : Front: L R
Sampling rate : 48.0 kHz
Frame rate : 31.250 FPS (1536 SPF)
Bit depth : 16 bits
Compression mode : Lossy
Stream size : 190 MiB (3%)
Title : UKR (1+1)
Language : Ukrainian
Service kind : Complete Main
Default : Yes
Forced : Yes

Audio #2
ID : 3
Format : AC-3
Format/Info : Audio Coding 3
Codec ID : A_AC3
Duration : 2 h 18 min
Bit rate mode : Constant
Bit rate : 192 kb/s
Channel(s) : 2 channels
Channel positions : Front: L R
Sampling rate : 48.0 kHz
Frame rate : 31.250 FPS (1536 SPF)
Bit depth : 16 bits
Compression mode : Lossy
Stream size : 190 MiB (3%)
Title : UKR (Cine+)
Language : Ukrainian
Service kind : Complete Main
Default : No
Forced : No

Audio #3
ID : 4
Format : AC-3
Format/Info : Audio Coding 3
Codec ID : A_AC3
Duration : 2 h 18 min
Bit rate mode : Constant
Bit rate : 640 kb/s
Channel(s) : 6 channels
Channel positions : Front: L C R, Side: L R, LFE
Sampling rate : 48.0 kHz
Frame rate : 31.250 FPS (1536 SPF)
Bit depth : 16 bits
Compression mode : Lossy
Stream size : 632 MiB (9%)
Language : English
Service kind : Complete Main
Default : No
Forced : No

Audio #4
ID : 5
Format :
Format/Info : Advanced Audio Codec
Format profile : HE- / LC
Format settings : Explicit
Codec ID : A_AAC-2
Duration : 2 h 18 min
Channel(s) : 2 channels
Channel positions : Front: L R
Sampling rate : 48.0 kHz / 24.0 kHz
Frame rate : 23.438 FPS (1024 SPF)
Compression mode : Lossy
Title : Commentary
Language : English
Default : No
Forced : No

Text
ID : 6
Format : UTF-8
Codec ID : S_TEXT/UTF8
Codec ID/Info : UTF-8 Plain Text
Title : Eng
Language : English
Default : No
Forced : No

Menu
00:00:00.000 : en:00:00:00.000
00:09:01.416 : en:00:09:01.416
00:23:28.449 : en:00:23:28.449
00:30:02.968 : en:00:30:02.968
00:36:44.994 : en:00:36:44.994
00:44:42.847 : en:00:44:42.847
00:49:55.242 : en:00:49:55.242
00:56:44.901 : en:00:56:44.901
01:03:18.253 : en:01:03:18.253
01:09:37.840 : en:01:09:37.840
01:26:18.215 : en:01:26:18.215
01:35:12.790 : en:01:35:12.790
01:45:33.994 : en:01:45:33.994
01:54:40.165 : en:01:54:40.165
02:03:27.317 : en:02:03:27.317
02:09:20.670 : en:02:09:20.670
Скріншоти








Звукозапис з ТБ: _Slavik_, Sando7
Зведення звуку: taraskill1, _Slavik_
Виготовлення постеру: Deluxeman
Особиста подяка пану denixx за надану матеріальну допомогу на підтримку цього і майбутніх релізів.
Джерело:


Срібний реліз (на рейтинг впливає 50% завантаженого)
 Трекер:    Зареєстрований   

Завантажити / скачати фільм українською



відео для новачків



 Зареєстрований:   2018-08-17 16:26
 Розмір:   6.97 GB 
 Оцінка фільму:   9.8/10 (Голосів: 6)
   
Інші релізи
   К-19 / K-19: The Widowmaker (2002) 2xUkr/Eng taraskill1  8 / 0   2.56 GB   2017-08-09 16:40 
O_omarella! 
Свій


З нами з: 14.06.13
Востаннє: 13.04.19
Повідомлень: 116

2019-03-09 14:57  
Класика!
Ваш часовий пояс: GMT + 2 Години

Нова тема   Відповісти