Вірус / Virus (1999) AVC Ukr/Eng | Sub Eng

Нові коментарі

Нова тема   Відповісти
Автор Повідомлення
staf777 
Відео Гуртом - підтримка та поширення
Відео Гуртом - підтримка та поширення


З нами з: 16.11.16
Востаннє: 22.10.19
Повідомлень: 2993

2018-08-17 10:10  
Вірус / Virus (1999) AVC Ukr/Eng | Sub Eng

Вірус / Virus (1999) AVC Ukr/Eng | Sub Eng
Альтернативний український постер:



Жанр: бойовик, жахи, трилер
Країна: США



Кінокомпанія: Universal Pictures
Режисер: Джон Бруно (John Bruno)
Актори: Джемі Лі Кертіс (Jamie Lee Curtis), Вільям Болдвін (William Baldwin), Дональд Сазерленд (Donald Sutherland), Джоанна Пакула (Joanna Pacula), Маршалл Белл (Marshall Bell) та інші.

Сюжет:
Команда невеликого американського судна, що дивом вирвалася з пащі тайфуну, виявляє безлюдне російське науково-дослідне судно. З надією на премію близько 30 мільйонів доларів вони збираються відбуксирувати його до найближчого порту. Тільки двоє з команди - Кіт Фостер і Стів Бейкер - відчувають небезпеку.
Правда жахлива: судно піддалося атаці іншопланетної мутуючої форми життя. Потужною і високорозвиненою, яка нарешті знайшла відповідну планету для свого вторгнення! І все ж жадібність бере своє, не залишивши надії на порятунок ...


Тривалість: 01:39:22
Якість:
Відео:
кодек:
розмір кадру: 1080x460
бітрейт: 2340 кб/с

Аудіо # 1:
мова: українська
переклад: двоголосий закадровий
кодек: 2.0
бітрейт: 192 кб/с

Аудіо # 2:
мова: англійська
переклад: оригінал
кодек: 5.1
бітрейт: 224 кб/с

Джерело озвучення:


Субтитри:
мова: англійська
тип: програмні (м'які)
формат: *.srt
Скріншоти




MI
General
Unique ID : 324346833529194794023478742680000252808 (0xF402ED8B412A3EAA4D6F04B48477CB88)
Complete name : H:\AVC\Virus (1999) AVC [Ukr,Eng sub.Eng][Hurtom].
Format :
Format version : Version 4 / Version 2
File size : 1.91 GiB
Duration : 1 h 39 min
Overall bit rate : 2 758 kb/s
Movie name : Virus (1999) AVC [Ukr,Eng sub.Eng][Hurtom]
Encoded date : UTC 2018-08-17 05:59:38
Writing application : v24.0.0 ('Beyond The Pale') 64-bit
Writing library : libebml v1.3.6 + v1.4.9
Cover : Yes
Attachments : Cover.jpg

Video
ID : 1
Format : AVC
Format/Info : Advanced Video Codec
Format profile : [email protected]
Format settings : CABAC / 12 Ref Frames
Format settings, CABAC : Yes
Format settings, ReFrames : 12 frames
Codec ID : V_MPEG4/ISO/AVC
Duration : 1 h 39 min
Bit rate : 2 340 kb/s
Width : 1 080 pixels
Height : 460 pixels
Display aspect ratio : 2.35:1
Frame rate mode : Constant
Frame rate : 23.976 (24000/1001) FPS
Color space : YUV
Chroma subsampling : 4:2:0
Bit depth : 8 bits
Scan type : Progressive
Bits/(Pixel*Frame) : 0.196
Stream size : 1.62 GiB (85%)
Title : MPEG-4, 1080x460, 23.976 fps ~2340 kbps
Writing library : core 155 r2901 7d0ff22
Encoding settings : cabac=1 / ref=12 / deblock=1:-3:-2 / analyse=0x3:0x133 / me=umh / subme=11 / psy=1 / psy_rd=1.00:0.10 / mixed_ref=1 / me_range=56 / chroma_me=1 / trellis=2 / 8x8dct=1 / cqm=0 / deadzone=21,11 / fast_pskip=0 / chroma_qp_offset=-3 / threads=6 / lookahead_threads=1 / sliced_threads=0 / nr=0 / decimate=1 / interlaced=0 / bluray_compat=0 / constrained_intra=0 / bframes=13 / b_pyramid=2 / b_adapt=2 / b_bias=0 / direct=3 / weightb=1 / open_gop=0 / weightp=2 / keyint=240 / keyint_min=24 / scenecut=40 / intra_refresh=0 / rc_lookahead=80 / rc=2pass / mbtree=0 / bitrate=2340 / ratetol=1.0 / qcomp=0.60 / qpmin=0 / qpmax=69 / qpstep=4 / cplxblur=20.0 / qblur=0.5 / vbv_maxrate=62500 / vbv_bufsize=78125 / nal_hrd=none / filler=0 / ip_ratio=1.40 / pb_ratio=1.30 / aq=1:1.00
Language : English
Default : Yes
Forced : No
Color range : Limited
Color primaries : BT.709
Transfer characteristics : BT.709
Matrix coefficients : BT.709

Audio #1
ID : 2
Format : AC-3
Format/Info : Audio Coding 3
Codec ID : A_AC3
Duration : 1 h 39 min
Bit rate mode : Constant
Bit rate : 192 kb/s
Channel(s) : 2 channels
Channel positions : Front: L R
Sampling rate : 48.0 kHz
Frame rate : 31.250 FPS (1536 SPF)
Bit depth : 16 bits
Compression mode : Lossy
Delay relative to video : -21 ms
Stream size : 136 MiB (7%)
Title : [UA-DVO-1+1]
Language : Ukrainian
Service kind : Complete Main
Default : Yes
Forced : Yes

Audio #2
ID : 3
Format :
Format/Info : Advanced Audio Codec
Format profile : HE- / LC
Format settings : Explicit
Codec ID : A_AAC-2
Duration : 1 h 39 min
Bit rate : 224 kb/s
Channel(s) : 6 channels
Channel positions : Front: L C R, Side: L R, LFE
Sampling rate : 48.0 kHz / 24.0 kHz
Frame rate : 23.438 FPS (1024 SPF)
Compression mode : Lossy
Delay relative to video : 10 ms
Stream size : 159 MiB (8%)
Title : HE- 6 ch, 48 kHz ~224kbps - Original
Language : English
Default : No
Forced : No

Text
ID : 4
Format : UTF-8
Codec ID : S_TEXT/UTF8
Codec ID/Info : UTF-8 Plain Text
Duration : 1 h 29 min
Bit rate : 52 b/s
Count of elements : 955
Stream size : 34.1 KiB (0%)
Language : English
Default : No
Forced : No

Menu
00:00:00.000 : :Chapter 1
00:04:52.167 : :Chapter 2
00:10:33.216 : :Chapter 3
00:15:06.114 : :Chapter 4
00:22:43.362 : :Chapter 5
00:29:30.394 : :Chapter 6
00:38:41.986 : :Chapter 7
00:43:08.127 : :Chapter 8
00:48:25.736 : :Chapter 9
00:54:57.085 : :Chapter 10
00:58:28.797 : :Chapter 11
01:01:46.786 : :Chapter 12
01:07:30.880 : :Chapter 13
01:11:30.536 : :Chapter 14
01:16:34.840 : :Chapter 15
01:19:27.263 : :Chapter 16
01:26:20.550 : :Chapter 17
01:31:02.123 : :Chapter 18
Запис з ТБ п. karvai0; Синхронізація patriot2305; Українізований постер п. hellforces
Джерело:
Особиста оцінка: 0 - не дивився


Срібний реліз (на рейтинг впливає 50% завантаженого)
 Трекер:    Зареєстрований   

Завантажити / скачати фільм українською



відео для новачків



 Зареєстрований:   2018-08-17 10:10
 Розмір:   1.91 GB 
 Оцінка фільму:   9.4/10 (Голосів: 24)
   
Інші релізи
   Вірус / Virus (1999) 720p Ukr/Eng | Sub Eng staf777  0 / 1   5.52 GB   2019-09-20 11:03 
   Вірус / Virus (1999) 1080p Ukr/Eng | Sub Eng staf777  3 / 0   9.12 GB   2018-08-17 19:37 
   Вірус / Virus (1999) patriot2305  4 / 0   1.32 GB   2014-03-20 17:09 
The Darknesss 
Новенький


З нами з: 29.03.17
Востаннє: 21.10.19
Повідомлень: 17

2018-08-17 18:30  
Легендарне кіно
romeo_m 
Новенький


З нами з: 20.01.10
Востаннє: 08.09.19
Повідомлень: 17

2018-08-17 19:17  
Класне кіно.
Kaarp 
Новенький


З нами з: 05.12.14
Востаннє: 20.10.19
Повідомлень: 1

2018-08-18 13:09  
Чого такий низький рейтинг? Фільм же реально шикарний!!
ZooLoo 
Новенький


З нами з: 05.06.17
Востаннє: 21.10.19
Повідомлень: 4

2018-08-20 08:02  
Легендарна фантастика. Рейтинг занижений
medved666 
Свій


З нами з: 11.04.15
Востаннє: 20.10.19
Повідомлень: 95

2018-08-21 10:15  
Прикольне кіно свого часу!
pvm 
Поважний учасник


З нами з: 05.03.10
Востаннє: 29.12.18
Повідомлень: 215

2018-08-24 02:06  
Чого такий низький рейтинг? Фільм же реально шикарний!!
Так, зайди і постав більший

ProgBassing 
Попереджень: 1
Попереджень: 1 


З нами з: 08.03.08
Востаннє: 21.10.19
Повідомлень: 874

2018-08-24 07:33  
pvm, мабуть через це

staf777 написано:
Вільям Болдвін (William Baldwin)

Ваш часовий пояс: GMT + 2 Години

Нова тема   Відповісти