Закохатися у братову наречену / Dan in Real Life (2007) 1080p Ukr/Eng | Sub Eng

Нові коментарі

Нова тема   Відповісти
Останній раз роздавалося drop_plz (2020-09-28)
Автор Повідомлення
Anonymous 







2018-08-17 05:28  
Закохатися у братову наречену / Dan in Real Life (2007) 1080p Ukr/Eng | Sub Eng

Закохатися у братову наречену / Dan in Real Life (2007) 1080p Ukr/Eng | Sub Eng


Жанр: комедія, мелодрама, сімейний
Країна: США



Кінокомпанія: Dan In Real Life Productions, Focus Features, Jon Shestack Productions, Touchstone Pictures
Режисер: Пітер Хеджес
Актори: Стів Карелл, Жульєтт Бінош, Дейн Кук, Джон Махоні, Дайян Віст, Елісон Пілл, Бріттані Робертсон, Марлен Лоустон, Емілі Блант

Сюжет:
Ден (Карелл) – вдовець і ведучий популярної рубрики корисних порад у престижній газеті. Одного дня він знайомиться з жінкою на ім’я Марі (Бінош) і вперше за довгий час відчуває, що у ньому прокидається почуття. Приїхавши разом до родичів на традиційний сімейний вікенд, Ден знову зустрічає Марі, яка виявляється новою подружкою його брата...
Історію, про яку розповідається у фільмі, взято з життя сценариста Пірса Гарднера, який добре знає, які несподіванки можуть трапитись, коли збирається численна родина (у його випадку це 27 чоловік).
Важливу роль у стрічці також грає музика. Постановнику запропонували список з 500 музикантів, однак йому найбільше сподобалась пісня у виконанні Сондре Лерше.


Тривалість: 01:38:13
Якість: 1080p
Відео:
кодек:
розмір кадру: 1920х1040
бітрейт: 10.9 Мб/с

Аудіо # 1:
мова: українська
переклад: багатоголосий закадровий
кодек: 5.1
бітрейт: 384 кб/с

Аудіо # 2:
мова: англійська
переклад: оригінал
кодек: 5.1
бітрейт: 640 кб/с

Субтитри:
мова: англійська
тип: програмні (м'які)
формат: *.srt
Info
General
Unique ID : 206940338416533767278318469152443088181 (0x9BAF426B0A473F298948ED893C423D35)
Format :
Format version : Version 4 / Version 2
File size : 8.21 GiB
Duration : 1 h 38 min
Overall bit rate : 12.0 Mb/s
Encoded date : UTC 2018-08-17 02:20:23
Writing application : v6.1.0 ('Old Devil') built on Mar 4 2013 09:10:42
Writing library : libebml v1.3.0 + v1.4.0

Video
ID : 1
Format : AVC
Format/Info : Advanced Video Codec
Format profile : [email protected]
Format settings : CABAC / 5 Ref Frames
Format settings, CABAC : Yes
Format settings, ReFrames : 5 frames
Codec ID : V_MPEG4/ISO/AVC
Duration : 1 h 38 min
Bit rate : 10.9 Mb/s
Width : 1 920 pixels
Height : 1 040 pixels
Display aspect ratio : 1.85:1
Frame rate mode : Constant
Frame rate : 23.976 FPS
Color space : YUV
Chroma subsampling : 4:2:0
Bit depth : 8 bits
Scan type : Progressive
Bits/(Pixel*Frame) : 0.229
Stream size : 7.34 GiB (89%)
Title : Dan.in.Real.Life.2007.1080p.BluRay.-HD1080
Writing library : core 58 r763M 0949975
Encoding settings : cabac=1 / ref=5 / deblock=1:0:0 / analyse=0x3:0x113 / me=umh / subme=7 / me-prepass=0 / brdo=1 / mixed_ref=1 / me_range=16 / chroma_me=1 / trellis=1 / 8x8dct=1 / cqm=0 / deadzone=21,11 / chroma_qp_offset=0 / threads=6 / nr=0 / decimate=1 / mbaff=0 / bframes=3 / b_pyramid=1 / b_adapt=1 / b_bias=0 / direct=1 / wpredb=1 / bime=1 / keyint=250 / keyint_min=25 / scenecut=40(pre) / rc=2pass / bitrate=10940 / ratetol=1.0 / rceq='blurCplx^(1-qComp)' / qcomp=1.00 / qpmin=10 / qpmax=51 / qpstep=4 / cplxblur=20.0 / qblur=0.5 / ip_ratio=1.40 / pb_ratio=1.30 / aq=1:0.5:13.0
Language : English
Default : Yes
Forced : Yes

Audio #1
ID : 2
Format : AC-3
Format/Info : Audio Coding 3
Codec ID : A_AC3
Duration : 1 h 38 min
Bit rate mode : Constant
Bit rate : 384 kb/s
Channel(s) : 6 channels
Channel positions : Front: L C R, Side: L R, LFE
Sampling rate : 48.0 kHz
Frame rate : 31.250 FPS (1536 SPF)
Bit depth : 16 bits
Compression mode : Lossy
Stream size : 270 MiB (3%)
Title : UKR (Kino)
Language : Ukrainian
Service kind : Complete Main
Default : Yes
Forced : Yes

Audio #2
ID : 3
Format : AC-3
Format/Info : Audio Coding 3
Codec ID : A_AC3
Duration : 1 h 38 min
Bit rate mode : Constant
Bit rate : 640 kb/s
Channel(s) : 6 channels
Channel positions : Front: L C R, Side: L R, LFE
Sampling rate : 48.0 kHz
Frame rate : 31.250 FPS (1536 SPF)
Bit depth : 16 bits
Compression mode : Lossy
Stream size : 450 MiB (5%)
Language : English
Service kind : Complete Main
Default : No
Forced : No

Text
ID : 4
Format : UTF-8
Codec ID : S_TEXT/UTF8
Codec ID/Info : UTF-8 Plain Text
Title : ENG
Language : English
Default : No
Forced : No

Menu
00:00:00.000 : :Dan in Real Life
00:08:03.024 : :Book Store
00:17:47.274 : :Coffee Date
00:22:34.227 : :Hide & Seek
00:29:13.293 : :Family Dinner
00:36:51.792 : :Exercise Time
00:42:46.522 : :Shower for Two
00:49:23.710 : :Pigface
00:59:28.773 : :Touch Football
01:07:53.861 : :Talent Show
01:14:55.824 : :Bowling
01:23:23.999 : :Syndication
01:28:36.561 : :Go Get Her
01:33:19.594 : :End Credits
Скріншоти







Подяки:
пану dvorsky за надану "сиру" українську доріжку
пану anonymous за надану англійську доріжку 5.1
пану WriterMix за постер
Особиста подяка пану denixx за надану матеріальну допомогу на підтримку цього і майбутніх релізів.
Джерело:


 Трекер:    Зареєстрований   

Завантажити / скачати фільм українською



відео для новачків



 Зареєстрований:   2018-08-17 05:28
 Розмір:   8.21 GB 
 Оцінка фільму:   9/10 (Голосів: 3)
   
Інші релізи
0mage0 
VIP


З нами з: 06.10.15
Востаннє: 28.09.20
Повідомлень: 696

2019-02-02 16:36  
Фільм норм, дивитися можна.
Ваш часовий пояс: GMT + 2 Години

Нова тема   Відповісти