Мисливець з Волл-стріт (Уолл-стріт, The Headhunter's Calling) / A Family Man (2016) 1080p Ukr/Eng | Sub Eng

Нові коментарі

Нова тема   Відповісти
Автор Повідомлення
Anonymous 







2018-08-17 05:14  
Мисливець з Волл-стріт (Уолл-стріт, The Headhunter's Calling) / A Family Man (2016) 1080p Ukr/Eng | Sub Eng

Мисливець з Волл-стріт (Уолл-стріт, The Headhunter's Calling) / A Family Man (2016) 1080p Ukr/Eng | Sub Eng


Жанр: драма
Країна: США, Канада



Кінокомпанія: Zero Gravity Management
Режисер: Марк Вільямс
Актори: Джерард Батлер, Ґретхен Мол, Елісон Брі, Віллем Дефо, Альфред Моліна, Кетлін Манро, Дастін Мілліган, Джулія Баттерз, Макс Дженкінс, Анупам Кхер та інші

Сюжет:
Головний герой фільму Дейн Дженсен всього себе присвятив кар'єрі. Він «мисливець за головами», співробітник, що вербує людей на роботу їх мрії. Дружина Еліс і троє дітей бачать главу сімейства вкрай рідко. У компанії, де працює Дейн, очікуються зміни. Зараз саме час докладати більше зусиль, щоб домогтися кар'єрного росту. Але стан здоров'я старшого сина змушує героя заново розставити пріоритети у своєму житті.


Тривалість: 01:45:43
Якість: 1080p
Відео:
кодек:
розмір кадру: 1920х800
бітрейт: 10.9 Мб/с

Аудіо # 1:
мова: українська
переклад: багатоголосий закадровий
кодек: 2.0
бітрейт: 192 кб/с
примітка: псевдодубляж | студія Tretyakoff production

Аудіо # 2:
мова: англійська
переклад: оригінал
кодек: 5.1
бітрейт: 1509 кб/с

Субтитри:
мова: англійська
тип: програмні (м'які)
формат: *.srt
Info
General
Unique ID : 172137354091812292020355953886419757621 (0x818072CF8A1AB772BB92424F22C82A35)
Format :
Format version : Version 4 / Version 2
File size : 9.51 GiB
Duration : 1 h 45 min
Overall bit rate : 12.9 Mb/s
Movie name : The Headhunter's Calling / A Family Man (2016) 1080p
Encoded date : UTC 2018-08-17 02:07:06
Writing application : v6.1.0 ('Old Devil') built on Mar 4 2013 09:10:42
Writing library : libebml v1.3.0 + v1.4.0

Video
ID : 1
Format : AVC
Format/Info : Advanced Video Codec
Format profile : [email protected]
Format settings : CABAC / 4 Ref Frames
Format settings, CABAC : Yes
Format settings, ReFrames : 4 frames
Codec ID : V_MPEG4/ISO/AVC
Duration : 1 h 45 min
Bit rate : 10.9 Mb/s
Nominal bit rate : 11.5 Mb/s
Width : 1 920 pixels
Height : 800 pixels
Display aspect ratio : 2.40:1
Frame rate mode : Constant
Frame rate : 25.000 FPS
Color space : YUV
Chroma subsampling : 4:2:0
Bit depth : 8 bits
Scan type : Progressive
Bits/(Pixel*Frame) : 0.285
Stream size : 8.07 GiB (85%)
Writing library : core 152 r2851M ba24899
Encoding settings : cabac=1 / ref=4 / deblock=1:-2:-2 / analyse=0x3:0x113 / me=umh / subme=9 / psy=1 / psy_rd=1.00:0.15 / mixed_ref=1 / me_range=16 / chroma_me=1 / trellis=2 / 8x8dct=1 / cqm=0 / deadzone=21,11 / fast_pskip=1 / chroma_qp_offset=-3 / threads=24 / lookahead_threads=3 / sliced_threads=0 / nr=0 / decimate=1 / interlaced=0 / bluray_compat=0 / constrained_intra=0 / bframes=3 / b_pyramid=2 / b_adapt=2 / b_bias=0 / direct=3 / weightb=1 / open_gop=0 / weightp=2 / keyint=250 / keyint_min=25 / scenecut=40 / intra_refresh=0 / rc_lookahead=50 / rc=abr / mbtree=1 / bitrate=11500 / ratetol=1.0 / qcomp=0.60 / qpmin=0 / qpmax=69 / qpstep=4 / vbv_maxrate=31250 / vbv_bufsize=31250 / nal_hrd=none / filler=0 / ip_ratio=1.40 / aq=1:1.00
Language : English
Default : Yes
Forced : No

Audio #1
ID : 2
Format : AC-3
Format/Info : Audio Coding 3
Codec ID : A_AC3
Duration : 1 h 45 min
Bit rate mode : Constant
Bit rate : 192 kb/s
Channel(s) : 2 channels
Channel positions : Front: L R
Sampling rate : 48.0 kHz
Frame rate : 31.250 FPS (1536 SPF)
Bit depth : 16 bits
Compression mode : Lossy
Stream size : 145 MiB (1%)
Title : UKR (MEGOGO)
Language : Ukrainian
Service kind : Complete Main
Default : Yes
Forced : Yes

Audio #2
ID : 3
Format :
Format/Info : Digital Theater Systems
Codec ID : A_DTS
Duration : 1 h 45 min
Bit rate mode : Constant
Bit rate : 1 509 kb/s
Channel(s) : 6 channels
Channel positions : Front: L C R, Side: L R, LFE
Sampling rate : 48.0 kHz
Frame rate : 93.750 FPS (512 SPF)
Bit depth : 24 bits
Compression mode : Lossy
Stream size : 1.11 GiB (12%)
Title : Original
Language : English
Default : No
Forced : No

Text
ID : 4
Format : UTF-8
Codec ID : S_TEXT/UTF8
Codec ID/Info : UTF-8 Plain Text
Language : English
Default : No
Forced : No

Menu
00:00:00.000 : en:Chapter 01
00:07:50.760 : en:Chapter 02
00:15:05.000 : en:Chapter 03
00:23:47.480 : en:Chapter 04
00:31:20.000 : en:Chapter 05
00:38:47.640 : en:Chapter 06
00:45:59.920 : en:Chapter 07
00:55:00.680 : en:Chapter 08
01:02:44.880 : en:Chapter 09
01:09:44.760 : en:Chapter 10
01:17:32.760 : en:Chapter 11
01:25:15.400 : en:Chapter 12
01:34:02.240 : en:Chapter 13
01:41:19.320 : en:Chapter 14
Скріншоти









За українську доріжку подяка пану Electroz
Особиста подяка пану denixx за надану матеріальну допомогу на підтримку цього і майбутніх релізів.
Джерело:


 Трекер:    Зареєстрований   

Завантажити / скачати фільм українською



відео для новачків



 Зареєстрований:   2018-08-17 05:14
 Розмір:   9.51 GB 
 Оцінка фільму:   9.3/10 (Голосів: 7)
   
Ваш часовий пояс: GMT + 2 Години

Нова тема   Відповісти