Поки ти спав / While You Were Sleeping (1995) 1080p H.265 Ukr/Eng | Sub Eng

Нові коментарі

Нова тема   Відповісти
Автор Повідомлення
Anonymous 







2018-08-16 17:59  
Поки ти спав / While You Were Sleeping (1995) 1080p H.265 Ukr/Eng | Sub Eng

Поки ти спав / While You Were Sleeping (1995) 1080p H.265 Ukr/Eng | Sub Eng


Жанр: мелодрама, комедія
Країна: США
Кінокомпанія: Caravan Pictures, Hollywood Pictures
Режисер: Джон Тертлтауб
Актори: Сандра Баллок, Біл Пулмен, Пітер Галахер, Пітер Бойл, Джек Варден, Глініс Джонс, Міколь Меркуріо, Джейсон Бернард.

Сюжет:
Сором'язливість заважає Люсі познайомитися з чоловіком своєї мрії, якого вона бачить кожного ранку. Зате допомагає випадок, і дівчина рятує незнайомцю життя. Тепер вона може милуватися ним цілими днями: врятований Пітер лежить в лікарні непритомний. Сім'я помилково приймає її за його наречену, і Люсі не хоче розчаровувати цих милих людей. Адже вона вже встигла прив'язатися до них, особливо до брата Пітера. І поки нічого не підозрюючи "наречений" спить, його "наречена" вже не вірить в прекрасний сон. Скоро Люсі доведеться вибирати між чарівною казкою і такою реальною любов'ю ...

Тривалість: 01:43:15
Якість:

Відео:
кодек: H.265 (HEVC)
розмір кадру: 1920 x 1038
бітрейт: 7 773 кб/с
бітова глибина: 10 біт

Увага! Перед завантаженням переконайтесь, що ваш пристрій відтворення (та/або ПЗ) підтримує H.265 (HEVC)

Аудіо # 1:
мова: українська
переклад: двоголосий закадровий
кодек: AC-3 2.0
бітрейт: 192 кб/с

Аудіо # 2:
мова: англійська
переклад: оригінал
кодек: AC-3 5.1
бітрейт: 448 кб/с

Субтитри # 1:
мова: англійська
тип: програмні (м'які)
формат: *.srt


Info
Код:
General
Unique ID                                : 28849197430748583845865140585033182069 (0x15B42740007DD88516FCF93223212B75)
Complete name                            : While You Were Sleeping (1995) 1080p H.265 [UKR_ENG].
Format                                   :
Format version                           : Version 4
File size                                : 6.07 GiB
Duration                                 : 1 h 43 min
Overall bit rate                         : 8 415 kb/s
Movie name                               : While You Were Sleeping (1995)
Encoded date                             : UTC 2018-08-15 21:01:52
Writing application                      : v20.0.0 ('I Am The Sun') 32-bit
Writing library                          : libebml v1.3.5 + v1.4.8
Cover                                    : Yes
Attachments                              : Cover.jpg

Video
ID                                       : 1
Format                                   : HEVC
Format/Info                              : High Efficiency Video Coding
Format profile                           : Main [email protected]@High
Codec ID                                 : V_MPEGH/ISO/HEVC
Duration                                 : 1 h 43 min
Bit rate                                 : 7 772 kb/s
Width                                    : 1 920 pixels
Height                                   : 1 038 pixels
Display aspect ratio                     : 1.85:1
Frame rate mode                          : Constant
Frame rate                               : 23.976 (24000/1001) FPS
Color space                              : YUV
Chroma subsampling                       : 4:2:0
Bit depth                                : 10 bits
Bits/(Pixel*Frame)                       : 0.163
Stream size                              : 5.61 GiB (92%)
Writing library                          : x265 2.7+340-aa9102400f24:[Windows][GCC 8.0.1][64 bit] 10bit
Encoding settings                        : cpuid=1049583 / frame-threads=4 / numa-pools=4 / wpp / no-pmode / no-pme / no-psnr / no-ssim / log-level=2 / input-csp=1 / input-res=1920x1038 / interlace=0 / total-frames=148547 / level-idc=41 / high-tier=1 / uhd-bd=0 / ref=5 / no-allow-non-conformance / no-repeat-headers / annexb / no-aud / no-hrd / info / hash=0 / no-temporal-layers / open-gop / min-keyint=23 / keyint=240 / gop-lookahead=0 / bframes=8 / b-adapt=2 / b-pyramid / bframe-bias=0 / rc-lookahead=40 / lookahead-slices=4 / scenecut=40 / radl=0 / no-intra-refresh / ctu=64 / min-cu-size=8 / rect / amp / max-tu-size=32 / tu-inter-depth=3 / tu-intra-depth=3 / limit-tu=4 / rdoq-level=1 / dynamic-rd=0.00 / no-ssim-rd / signhide / no-tskip / nr-intra=0 / nr-inter=0 / no-constrained-intra / no-strong-intra-smoothing / max-merge=3 / limit-refs=2 / limit-modes / me=3 / subme=7 / merange=57 / temporal-mvp / weightp / weightb / no-analyze-src-pics / deblock=-3:-3 / no-sao / no-sao-non-deblock / rd=4 / no-early-skip / rskip / no-fast-intra / no-tskip-fast / no-cu-lossless / no-b-intra / no-splitrd-skip / rdpenalty=0 / psy-rd=2.00 / psy-rdoq=1.00 / no-rd-refine / no-lossless / cbqpoffs=0 / crqpoffs=0 / rc=crf / crf=19.3 / qcomp=0.60 / qpstep=4 / stats-write=0 / stats-read=0 / vbv-maxrate=50000 / vbv-bufsize=50000 / vbv-init=0.9 / crf-max=0.0 / crf-min=0.0 / ipratio=1.40 / pbratio=1.30 / aq-mode=1 / aq-strength=1.00 / cutree / zone-count=0 / no-strict-cbr / qg-size=32 / no-rc-grain / qpmax=69 / qpmin=0 / no-const-vbv / sar=1 / overscan=0 / videoformat=5 / range=0 / colorprim=1 / transfer=1 / colormatrix=1 / chromaloc=0 / display-window=0 / max-cll=0,0 / min-luma=0 / max-luma=1023 / log2-max-poc-lsb=8 / vui-timing-info / vui-hrd-info / slices=1 / no-opt-qp-pps / no-opt-ref-list-length-pps / no-multi-pass-opt-rps / scenecut-bias=0.05 / no-opt-cu-delta-qp / no-aq-motion / no-hdr / no-hdr-opt / no-dhdr10-opt / no-idr-recovery-sei / analysis-reuse-level=5 / scale-factor=0 / refine-intra=0 / refine-inter=0 / refine-mv=0 / no-limit-sao / ctu-info=0 / no-lowpass-dct / refine-mv-type=0 / copy-pic=1 / max-ausize-factor=1.0 / no-dynamic-refine / no-single-sei
Default                                  : Yes
Forced                                   : No
Color range                              : Limited
Color primaries                          : BT.709
Transfer characteristics                 : BT.709
Matrix coefficients                      : BT.709

Audio #1
ID                                       : 2
Format                                   : AC-3
Format/Info                              : Audio Coding 3
Commercial name                          : Dolby Digital
Codec ID                                 : A_AC3
Duration                                 : 1 h 43 min
Bit rate mode                            : Constant
Bit rate                                 : 192 kb/s
Channel(s)                               : 2 channels
Channel layout                           : L R
Sampling rate                            : 48.0 kHz
Frame rate                               : 31.250 FPS (1536 SPF)
Bit depth                                : 16 bits
Compression mode                         : Lossy
Stream size                              : 142 MiB (2%)
Title                                    : 1+1
Language                                 : Ukrainian
Service kind                             : Complete Main
Default                                  : Yes
Forced                                   : No

Audio #2
ID                                       : 3
Format                                   : AC-3
Format/Info                              : Audio Coding 3
Commercial name                          : Dolby Digital
Codec ID                                 : A_AC3
Duration                                 : 1 h 43 min
Bit rate mode                            : Constant
Bit rate                                 : 448 kb/s
Channel(s)                               : 6 channels
Channel layout                           : L R C LFE Ls Rs
Sampling rate                            : 48.0 kHz
Frame rate                               : 31.250 FPS (1536 SPF)
Bit depth                                : 16 bits
Compression mode                         : Lossy
Stream size                              : 331 MiB (5%)
Title                                    : Original
Language                                 : English
Service kind                             : Complete Main
Default                                  : No
Forced                                   : No

Text
ID                                       : 4
Format                                   : UTF-8
Codec ID                                 : S_TEXT/UTF8
Codec ID/Info                            : UTF-8 Plain Text
Duration                                 : 1 h 37 min
Bit rate                                 : 72 b/s
Count of elements                        : 1573
Stream size                              : 51.9 KiB (0%)
Language                                 : English
Default                                  : No
Forced                                   : No

Menu
00:00:00.000                             : en:Program Start
00:03:44.724                             : en:Opening Credits
00:08:07.737                             : en:Prince Charming
00:11:32.525                             : en:The Fateful Day
00:17:06.066                             : en:Meeting the Family
00:30:51.891                             : en:Overheard
00:35:14.070                             : en:Early Morning Encounter
00:38:48.743                             : en:Fortune Smiles
00:41:23.439                             : en:Test of Intimacy
00:46:14.229                             : en:String of Vistors
00:51:13.111                             : en:An Engagement Present
00:54:45.949                             : en:Caution: Ice
00:56:16.456                             : en:Lucky in Love
00:58:09.194                             : en:Beef, Potatoes and Brunettes
01:07:10.776                             : en:Learning
01:15:51.880                             : en:"Who Are You?"
01:21:13.118                             : en:A "Putz"
01:25:57.569                             : en:Reborn
01:31:10.840                             : en:A Second Chance
01:37:28.008                             : en:The Moment of Truth
01:43:15.397                             : en:
Світлини




Джерело: &
Особиста оцінка: 0 - не дивився


Срібний реліз (на рейтинг впливає 50% завантаженого)
 Трекер:    Зареєстрований   

Завантажити / скачати фільм українською



відео для новачків



 Зареєстрований:   2018-08-16 17:59
 Розмір:   6.07 GB 
 Оцінка фільму:   8.2/10 (Голосів: 5)
   
Інші релізи
vash1 
Поважний учасник


З нами з: 16.03.16
Востаннє: 10.12.19
Повідомлень: 217

2018-10-27 18:39  
спойлер на постері ))
Ваш часовий пояс: GMT + 2 Години

Нова тема   Відповісти